Calificación:
  • 0 voto(s) - 0 Media
  • 1
  • 2
  • 3
  • 4
  • 5

[-]
Etiquetas
latino pl link ¿qué paso comedia ayer? 1 2 2011 dvdrip

¿Qué Paso Ayer? 2 (2011) [DVDRip/Latino] [Comedia] [1 Link] [PL]

#1
Video 

Subida por pedido

Sinopsis / Synopsis:
En la secuela de "Resacón en Las Vegas", Phil (Bradley Cooper), Stu (Ed Helms), Alan (Zach Galifianakis) y Doug (Justin Bartha) viajan a la éxotica Tailandia para asistir a la boda de Stu. Después de la inolvidable despedida de soltero en Las Vegas, Stu no quiere asumir ningún riesgo y ha decidido ofrecer un almuerzo tranquilo y contenido antes de la boda. No obstante, las cosas no siempre salen como está previsto. Quizás lo que ocurre en Las Vegas se queda en Las Vegas, pero uno ni siquiera puede imaginar lo que sucederá en Bangkok.

Ficha Técnica / Technical details:
Título original: The Hangover Part II (The Hangover 2)
Titulo Español: Resacón 2 ¡Ahora en Tailandia!
Titulo Latino: ¿Qué Pasó Ayer? 2
Año: 2011
Duración: 102 min.
País: Estados Unidos
Director: Todd Phillips
Guión: Scot Armstrong, Craig Mazin, Todd Phillips (Personajes: Jon Lucas, Scott Moore)
Música: Christophe Beck
Fotografía: Lawrence Sher
Reparto: Zach Galifianakis, Bradley Cooper, Ed Helms, Justin Bartha, Ken Jeong, Paul Giamatti, Jamie Chung, Todd Phillips, Mike Tyson, William A. Johnson, Jeffrey Tambor
Productora: WB / Touchstone Pictures / Green Hat Films / Legendary Pictures
Género: Comedia | Secuela

Trailer:




Datos Técnicos / Technical Data:
DVDRip | AVI | 691 MB | 640x272 | Español Latino

Capturas / Screenshots:


Mediainfo:
Código:
General
Complete name                            : Que Paso Ayer 2.DVDRip.Latino(peliculastomas01).avi
Format                                   : AVI
Format/Info                              : Audio Video Interleave
File size                                : 692 MiB
Duration                                 : 1h 41mn
Overall bit rate                         : 950 Kbps
Writing application                      : Nandub v1.0rc2
Writing library                          : VirtualDub build 30586/release

Video
ID                                       : 0
Format                                   : MPEG-4 Visual
Format profile                           : Advanced Simple@L5
Format settings, BVOP                    : 2
Format settings, QPel                    : No
Format settings, GMC                     : No warppoints
Format settings, Matrix                  : Default (H.263)
Codec ID                                 : XVID
Codec ID/Hint                            : XviD
Duration                                 : 1h 41mn
Bit rate                                 : 813 Kbps
Width                                    : 640 pixels
Height                                   : 272 pixels
Display aspect ratio                     : 2.35:1
Frame rate                               : 23.976 fps
Color space                              : YUV
Chroma subsampling                       : 4:2:0
Bit depth                                : 8 bits
Scan type                                : Progressive
Compression mode                         : Lossy
Bits/(Pixel*Frame)                       : 0.195
Stream size                              : 592 MiB (86%)
Writing library                          : XviD 1.2.1 (UTC 2008-12-04)

Audio
ID                                       : 1
Format                                   : MPEG Audio
Format version                           : Version 1
Format profile                           : Layer 3
Codec ID                                 : 55
Codec ID/Hint                            : MP3
Duration                                 : 1h 41mn
Bit rate mode                            : Constant
Bit rate                                 : 128 Kbps
Channel(s)                               : 2 channels
Sampling rate                            : 44.1 KHz
Compression mode                         : Lossy
Stream size                              : 93.2 MiB (13%)
Alignment                                : Split accross interleaves
Interleave, duration                     : 42 ms (1.00 video frame)
Interleave, preload duration             : 500 ms
Writing library                          : LAME3.98r
Encoding settings                        : -m s -V 4 -q 2 -lowpass 17 -b 128

Contraseña / Password:
Código:
peliculastomas01

Descargar Gratis / Download Free:

FreakShare | uploadable | FireDriver(PutLocker)

Código:
http://goo.gl/E98ckb

Notas:
----------------------------------------------------------------------------------------------------
-Si tienes problemas con el sonido reportamelo por MP, Ya le tengo solucion.
-Si algun enlace o link se cae, no lo avises comentando, hazlo por MP o por el reporte de links, asi me doy cuenta rapido.
-Verifica si he resubido los links aveces no lo comento en el foro, solo lo digo por el contenedor de links.
-Por favor, les pido que comenten sobre la calidad o sonido de la peli, asi los demas sabran lo que descargan.


----------------------------------------------------------------------------------------------------

Responder
Thanks given by:


Posibles temas similares...
Tema Autor Respuestas Vistas Último mensaje
Video Ultravioleta HD1080p Lat-Cast-Ing 5.1 (2006) dvdriplat 0 5 8 horas
Último mensaje: dvdriplat
Video Ultravioleta HD720p Lat-Cast-Ing 5.1 (2006) dvdriplat 0 4 9 horas
Último mensaje: dvdriplat
Video El Regreso De La Mosca HD1080p Lat-Cast-Ing 2.0 (1959) dvdriplat 0 7 Hoy, 05:13 AM
Último mensaje: dvdriplat
Video El Regreso De La Mosca HD720p Lat-Cast-Ing 2.0 (1959) dvdriplat 0 6 Hoy, 05:05 AM
Último mensaje: dvdriplat



Usuarios navegando en este tema: 1 invitado(s)

Powered By MyBB, © 2002-2017 MyBB Group.