Calificación:
  • 0 voto(s) - 0 Media
  • 1
  • 2
  • 3
  • 4
  • 5

[-]
Etiquetas
¿que latino pl link paso comedia ayer? 1 2009 dvdrip

¿Que Paso Ayer? (2009) [DVDRip/Latino] [Comedia] [1 Link] [PL]

#1
Video 

Subida por pedido

Sinopsis / Synopsis:
En la pelicula The Hangover (conocida como Resacon en Las Vegas en España), todo comienza cuando dos días antes de su boda, Doug (Justin Bartha) viaja en coche a Las Vegas con sus mejores amigos, Phil y Stu (Bradley Cooper y Ed Helms), y su futuro cuñado, Alan (Zach Galifianakis), para celebrar un fiestón de despedida. A la mañana siguiente, los tres amigos del novio se despiertan con una fuerte resaca y no recuerdan nada de lo sucedido durante la juerga nocturna. La suite del lujoso hotel está convertida en un basurero y el novio no aparece por ninguna parte. Sin ninguna pista de lo sucedido y con poco tiempo que perder, los tres deben intentar recordar sus malas decisiones de la noche anterior para averiguar dónde está Doug. Pero cuanto más empiezan a descubrir, más se dan cuenta de los problemas en los que están metidos.

Ficha Técnica / Technical details:
Título original: The Hangover
Titulo Latino: ¿Que Paso Ayer?
Titulo Español: Resacon en Las Vegas
Año: 2009
Duración: 100 min.
País: Estados Unidos
Director: Todd Phillips
Guión: Jon Lucas, Scott Moore
Música: Christophe Beck
Fotografía: Lawrence Sher
Reparto: Bradley Cooper, Ed Helms, Zach Galifianakis, Justin Bartha, Heather Graham, Sasha Barrese, Jeffrey Tambor, Ken Jeong, Rachael Harris, Mike Tyson, Mike Epps, Jernard Burks, Rob Riggle, Cleo King, Bryan Callen, Ian Anthony Dale, Gillian Vigman, Todd Phillips, Matt Walsh
Productora: Warner Bros. Pictures / Legendary Pictures / Green Hat Films
Género: Comedia | Comedia negra. Road Movie

Trailer:




Datos Técnicos / Technical Data:
DVDRip | AVI | 705 MB | 656x280 | Español Latino

Capturas / Screenshots:


Mediainfo:
Código:
General
Complete name                            : Que Paso Ayer.DVDRip.Latino(peliculastomas01).avi
Format                                   : AVI
Format/Info                              : Audio Video Interleave
File size                                : 706 MiB
Duration                                 : 1h 39mn
Overall bit rate                         : 990 Kbps
Writing application                      : Lavf52.33.0
Original source form/Name                : THE_HANGOVER

Video
ID                                       : 0
Format                                   : MPEG-4 Visual
Format profile                           : Simple@L3
Format settings, BVOP                    : No
Format settings, QPel                    : No
Format settings, GMC                     : No warppoints
Format settings, Matrix                  : Default (H.263)
Codec ID                                 : XVID
Codec ID/Hint                            : XviD
Duration                                 : 1h 39mn
Bit rate                                 : 881 Kbps
Width                                    : 656 pixels
Height                                   : 280 pixels
Display aspect ratio                     : 2.35:1
Frame rate                               : 23.976 fps
Color space                              : YUV
Chroma subsampling                       : 4:2:0
Bit depth                                : 8 bits
Scan type                                : Progressive
Compression mode                         : Lossy
Bits/(Pixel*Frame)                       : 0.200
Stream size                              : 628 MiB (89%)
Writing library                          : XviD 1.2.1 (UTC 2008-12-04)

Audio
ID                                       : 1
Format                                   : MPEG Audio
Format version                           : Version 1
Format profile                           : Layer 3
Mode                                     : Joint stereo
Mode extension                           : MS Stereo
Codec ID                                 : 55
Codec ID/Hint                            : MP3
Duration                                 : 1h 39mn
Bit rate mode                            : Constant
Bit rate                                 : 96.0 Kbps
Channel(s)                               : 2 channels
Sampling rate                            : 48.0 KHz
Compression mode                         : Lossy
Stream size                              : 68.5 MiB (10%)
Alignment                                : Aligned on interleaves
Interleave, duration                     : 24 ms (0.58 video frame)
Writing library                          : LAME3.98.2

Contraseña / Password:
Código:
peliculastomas01

Descargar Gratis / Download Free:

FreakShare | uploadable | FireDriver(PutLocker)

Código:
http://goo.gl/hqAw77

Notas:
----------------------------------------------------------------------------------------------------
-Si tienes problemas con el sonido reportamelo por MP, Ya le tengo solucion.
-Si algun enlace o link se cae, no lo avises comentando, hazlo por MP o por el reporte de links, asi me doy cuenta rapido.
-Verifica si he resubido los links aveces no lo comento en el foro, solo lo digo por el contenedor de links.
-Por favor, les pido que comenten sobre la calidad o sonido de la peli, asi los demas sabran lo que descargan.


----------------------------------------------------------------------------------------------------

Responder
Thanks given by:


Posibles temas similares...
Tema Autor Respuestas Vistas Último mensaje
Video Ultravioleta HD1080p Lat-Cast-Ing 5.1 (2006) dvdriplat 0 5 8 horas
Último mensaje: dvdriplat
Video Ultravioleta HD720p Lat-Cast-Ing 5.1 (2006) dvdriplat 0 4 9 horas
Último mensaje: dvdriplat
Video El Regreso De La Mosca HD1080p Lat-Cast-Ing 2.0 (1959) dvdriplat 0 7 Hoy, 05:13 AM
Último mensaje: dvdriplat
Video El Regreso De La Mosca HD720p Lat-Cast-Ing 2.0 (1959) dvdriplat 0 6 Hoy, 05:05 AM
Último mensaje: dvdriplat



Usuarios navegando en este tema: 1 invitado(s)

Powered By MyBB, © 2002-2017 MyBB Group.