Calificación:
  • 1 voto(s) - 3 Media
  • 1
  • 2
  • 3
  • 4
  • 5

[-]
Etiquetas
link fd de 2013 años castellano 12 1 drama esclavitud dvdrip

12 años de esclavitud (2013) [DVDRip/Castellano] [Drama] [1 Link] [FD]

#1
Video 

Sinopsis / Synopsis:
Basada en un hecho real ocurrido en 1850, narra la historia de Solomon Northup, un culto músico negro -y hombre libre- que vivía con su familia en Nueva York. Tras compartir una copa con dos hombres aparentemente de confianza, Solomon descubre que ha sido drogado y secuestrado para ser vendido como esclavo en el Sur en una plantación de Louisiana. Renunciando a abandonar la esperanza, Solomon contempla cómo todos a su alrededor sucumben a la violencia, al abuso emocional y a la desesperanza. Pero él decide esperar a que aparezca el momento adecuado para intentar recuperar su libertad y reunirse con su familia.

Ficha Técnica / Technical details:
Título original: 12 Years a Slave (Twelve Years a Slave)
Título : 12 años de esclavitud
Año: 2013
Duración: 133 min.
País: Estados Unidos
Director: Steve McQueen
Guión: John Ridley (Biografía: Solomon Northup)
Música: Hans Zimmer
Fotografía: Sean Bobbitt
Reparto: Chiwetel Ejiofor, Michael Fassbender, Lupita Nyong'o, Benedict Cumberbatch, Paul Dano, Paul Giamatti, Sarah Paulson, Brad Pitt, Alfre Woodard, Michael K. Williams, Garret Dillahunt, Quvenzhané Wallis, Scoot McNairy, Taran Killam, Bryan Batt, Dwight Henry
Productora: Summit Entertainment / Plan B / River Road Entertainment / New Regency Pictures / Film4
Género: Drama | Basado en hechos reales. Biográfico. Esclavitud. Racismo. Siglo XIX. Histórico
Estreno en USA: 18/10/2013
Estreno en España: 13/12/2013

Trailer:




Datos Técnicos / Technical Data:
DVDRip | AVI | 1.34 GB | 720x304 | Castellano

Capturas /
Screenshots:


Mediainfo:
Código:
General
Complete name                            : 12 axos de esclavitud.DVDRip.Castellano-Bytomas01.avi
Format                                   : AVI
Format/Info                              : Audio Video Interleave
File size                                : 1.34 GiB
Duration                                 : 2h 14mn
Overall bit rate                         : 1 426 Kbps
Writing application                      : VirtualDubMod 1.5.10.2 (build 2540/release)
Writing library                          : VirtualDubMod build 2540/release

Video
ID                                       : 0
Format                                   : MPEG-4 Visual
Format profile                           : Advanced Simple@L5
Format settings, BVOP                    : 2
Format settings, QPel                    : No
Format settings, GMC                     : No warppoints
Format settings, Matrix                  : Default (H.263)
Codec ID                                 : XVID
Codec ID/Hint                            : XviD
Duration                                 : 2h 14mn
Bit rate                                 : 969 Kbps
Width                                    : 720 pixels
Height                                   : 304 pixels
Display aspect ratio                     : 2.35:1
Frame rate                               : 23.976 fps
Color space                              : YUV
Chroma subsampling                       : 4:2:0
Bit depth                                : 8 bits
Scan type                                : Progressive
Compression mode                         : Lossy
Bits/(Pixel*Frame)                       : 0.185
Stream size                              : 931 MiB (68%)
Writing library                          : XviD 1.2.1 (UTC 2008-12-04)

Audio
ID                                       : 1
Format                                   : AC-3
Format/Info                              : Audio Coding 3
Mode extension                           : CM (complete main)
Codec ID                                 : 2000
Duration                                 : 2h 14mn
Bit rate mode                            : Constant
Bit rate                                 : 448 Kbps
Channel(s)                               : 6 channels
Channel positions                        : Front: L C R, Side: L R, LFE
Sampling rate                            : 48.0 KHz
Bit depth                                : 16 bits
Compression mode                         : Lossy
Stream size                              : 430 MiB (31%)
Alignment                                : Split accross interleaves
Interleave, duration                     : 42 ms (1.00 video frame)
Interleave, preload duration             : 500 ms


Contraseña / Password:
Código:
tomas01


Descargar Gratis / Download Free:


FreakShare | FileOm | FireDriver(PutLocker)

Código:
http://goo.gl/YM4HF1

Notas de aclaración:
----------------------------------------------------------------------------------------------------
Esto es para que quede en claro, mis pelis se escuchan porque yo las oigo en mi PC, si tienes problemas con el sonido o video entra al contenedor de links hay le tengo solución.
Si vas a reportar links rotos lo puedes hacer por MP o por el reporte de links ''esta junto en los links'' revisa los links si lo he resubido, no lo comento por el tiempo.


----------------------------------------------------------------------------------------------------

Responder
Thanks given by:


Posibles temas similares...
Tema Autor Respuestas Vistas Último mensaje
  El velo pintado [1934] [DVDRip] [DUAL ES IN] [Romance Drama] Blade Master 666 0 9 10 horas
Último mensaje: Blade Master 666
  Moby Dick [1956] [HDRIP] [DUAL ES IN] [Aventuras Drama] Blade Master 666 0 7 10 horas
Último mensaje: Blade Master 666
Video Hotel Transylvania 2 [2015][3D H-SBS 1080p][Ing-Lat] profito 0 8 Ayer, 10:12 PM
Último mensaje: profito
Video Hotel Transylvania [2012][3D H-SBS 1080p][Ing-Lat] profito 0 8 Ayer, 10:03 PM
Último mensaje: profito



Usuarios navegando en este tema: 1 invitado(s)

Powered By MyBB, © 2002-2017 MyBB Group.