Calificación:
  • 0 voto(s) - 0 Media
  • 1
  • 2
  • 3
  • 4
  • 5

[-]
Etiquetas
un latino pl link de el imperio nacimiento 300 1 2014 screener br acción

300: El nacimiento de un imperio (2014) [BR Screener/Latino] [Acción] [1 Link] [PL]

#1
Video 

Sinopsis / Synopsis:
Esta nueva entrega de la saga épica lleva la acción al campo de batalla (esta vez, en el mar) y nos narra los intentos del general griego Temístocles de unificar toda Grecia dirigiendo el cambio que modificará el curso de la guerra.
'300: El Origen de un Imperio' enfrenta a Temístocles contra las invasoras fuerzas persas capitaneadas por Xerxes (mortal devenido en dios), y Artemisia, la vengativa comandante de la armada persa.

Ficha Técnica / Technical details:
Título original: 300: Rise of an Empire
Título : 300: El nacimiento de un imperio
Año: 2014
Duración: 102 min.
País: Estados Unidos
Director: Noam Murro
Guión: Zack Snyder, Kurt Johnstad (Novela gráfica: Frank Miller)
Música: Junkie XL
Fotografía: Simon Duggan
Reparto: Sullivan Stapleton, Eva Green, Rodrigo Santoro, Lena Headey, Jack O'Connell, Andrew Tiernan, David Wenham, Callan Mulvey, Andrew Pleavin, Yigal Naor, Ashraf Barhom, Vincent Walsh, Steven Cree, Trayan Milenov-Troy, Andrei Claude, Peter Ferdinando, Mark Killeen
Productora: Atmosphere Entertainment MM / Cruel & Unusual Films / Hollywood Gang Productions / Legendary Pictures / Warner Bros. Pictures
Género: Acción. Bélico | Antigua Grecia. Cine épico. Secuela. Spin-off. Cómic. 3-D
Estreno en USA: 07/03/2014
Estreno en España: 07/03/2014

Trailer:




Mira los primeros 3 minutos de la peli, antes de descargarla:
Código:
http://played.to/h315v0lvy43n

Datos Técnicos / Technical Data:
BR Screener | AVI | 1.50 GB | 720x304 | Español Latino

Capturas / Screenshots:


Mediainfo:
Código:
General
Complete name                            : 300: El nacimiento de un imperio.BR Screener.Latino(peliculastomas01).avi
Format                                   : AVI
Format/Info                              : Audio Video Interleave
File size                                : 1.50 GiB
Duration                                 : 1h 42mn
Overall bit rate                         : 2 099 Kbps
Writing application                      : VirtualDubMod 1.5.10.2 (build 2540/release)
Writing library                          : VirtualDubMod build 2540/release

Video
ID                                       : 0
Format                                   : MPEG-4 Visual
Format profile                           : Advanced Simple@L5
Format settings, BVOP                    : 2
Format settings, QPel                    : No
Format settings, GMC                     : No warppoints
Format settings, Matrix                  : Default (MPEG)
Muxing mode                              : Packed bitstream
Codec ID                                 : XVID
Codec ID/Hint                            : XviD
Duration                                 : 1h 42mn
Bit rate                                 : 1 898 Kbps
Width                                    : 720 pixels
Height                                   : 304 pixels
Display aspect ratio                     : 2.35:1
Frame rate                               : 23.976 fps
Color space                              : YUV
Chroma subsampling                       : 4:2:0
Bit depth                                : 8 bits
Scan type                                : Progressive
Compression mode                         : Lossy
Bits/(Pixel*Frame)                       : 0.362
Stream size                              : 1.36 GiB (90%)
Writing library                          : XviD 64

Audio
ID                                       : 1
Format                                   : MPEG Audio
Format version                           : Version 1
Format profile                           : Layer 3
Mode                                     : Joint stereo
Codec ID                                 : 55
Codec ID/Hint                            : MP3
Duration                                 : 1h 42mn
Bit rate mode                            : Constant
Bit rate                                 : 192 Kbps
Channel(s)                               : 2 channels
Sampling rate                            : 48.0 KHz
Compression mode                         : Lossy
Stream size                              : 141 MiB (9%)
Alignment                                : Aligned on interleaves
Interleave, duration                     : 42 ms (1.00 video frame)
Interleave, preload duration             : 504 ms

Contraseña / Password:
Código:
peliculastomas01

Descargar Gratis / Download Free:

FreakShare | uploadable | FireDriver(PutLocker)

Código:
http://goo.gl/C9UIIs

Notas:
----------------------------------------------------------------------------------------------------
-Si tienes problemas con el sonido reportamelo por MP, Ya le tengo solucion.
-Si algun enlace o link se cae, no lo avises comentando, hazlo por MP o por el reporte de links, asi me doy cuenta rapido.
-Verifica si he resubido los links aveces no lo comento en el foro, solo lo digo por el contenedor de links.
-Por favor, les pido que comenten sobre la calidad o sonido de la peli, asi los demas sabran lo que descargan.


----------------------------------------------------------------------------------------------------

Responder
Thanks given by:


Posibles temas similares...
Tema Autor Respuestas Vistas Último mensaje
  Las ratas del desierto [1953] [DVDRip] [Castellano] [Bélico IIGM] Blade Master 666 0 28 04-28-2017, 03:24 AM
Último mensaje: Blade Master 666
  Infierno en la bahía de San Francisco [1955] [DVDRip] [DUAL ES IN] [Thriller Drama] Blade Master 666 0 14 04-28-2017, 03:21 AM
Último mensaje: Blade Master 666
Video Turbo [2013][3D H-SBS 1080p][Ing-Lat] profito 0 8 04-28-2017, 02:45 AM
Último mensaje: profito
Video The Lion King III [2004][FullHD 1080][Ing-Lat] profito 0 5 04-27-2017, 11:28 PM
Último mensaje: profito



Usuarios navegando en este tema: 1 invitado(s)

Powered By MyBB, © 2002-2017 MyBB Group.