Calificación:
  • 0 voto(s) - 0 Media
  • 1
  • 2
  • 3
  • 4
  • 5

[-]
Etiquetas
rise an accion pl link 720phd subtitulado of 300 1 2014 empire

300: Rise of an Empire (2014) [720pHD/Subtitulado] [Accion] [1 Link] [PL]

#1
Video 

Sinopsis / Synopsis:
Esta nueva entrega de la saga épica lleva la acción al campo de batalla (esta vez, en el mar) y nos narra los intentos del general griego Temístocles de unificar toda Grecia dirigiendo el cambio que modificará el curso de la guerra.
'300: El Origen de un Imperio' enfrenta a Temístocles contra las invasoras fuerzas persas capitaneadas por Xerxes (mortal devenido en dios), y Artemisia, la vengativa comandante de la armada persa.

Ficha Técnica / Technical details:
Título original: 300: Rise of an Empire
Año: 2014
Duración: 102 min.
País: Estados Unidos
Director: Noam Murro
Guión: Zack Snyder, Kurt Johnstad (Novela gráfica: Frank Miller)
Música: Junkie XL
Fotografía: Simon Duggan
Reparto: Sullivan Stapleton, Eva Green, Rodrigo Santoro, Lena Headey, Jack O'Connell, Andrew Tiernan, David Wenham, Callan Mulvey, Andrew Pleavin, Yigal Naor, Ashraf Barhom, Vincent Walsh, Steven Cree, Trayan Milenov-Troy, Andrei Claude, Peter Ferdinando, Mark Killeen
Productora: Atmosphere Entertainment MM / Cruel & Unusual Films / Hollywood Gang Productions / Legendary Pictures / Warner Bros. Pictures
Género: Acción. Bélico | Antigua Grecia. Cine épico. Secuela. Spin-off. Cómic. 3-D
Estreno en USA: 07/03/2014

Trailer:




Datos Técnicos / Technical Data:
720pHD | AVI | 1.94 GB | 1280x526 | Sub Español

Capturas / Screenshots:


Mediainfo:
Código:
General
Complete name                            : 300.Rise.of.an.Empire.720p.VOSE(peliculastomas01).avi
Format                                   : AVI
Format/Info                              : Audio Video Interleave
Format profile                           : OpenDML
File size                                : 1.94 GiB
Duration                                 : 1h 42mn
Overall bit rate                         : 2 705 Kbps
Writing application                      : Lavf52.84.0

Video
ID                                       : 0
Format                                   : MPEG-4 Visual
Format profile                           : Simple@L1
Format settings, BVOP                    : No
Format settings, QPel                    : No
Format settings, GMC                     : No warppoints
Format settings, Matrix                  : Default (H.263)
Codec ID                                 : XVID
Codec ID/Hint                            : XviD
Duration                                 : 1h 42mn
Bit rate                                 : 2 565 Kbps
Width                                    : 1 280 pixels
Height                                   : 526 pixels
Display aspect ratio                     : 2.40:1
Frame rate                               : 23.976 fps
Color space                              : YUV
Chroma subsampling                       : 4:2:0
Bit depth                                : 8 bits
Scan type                                : Progressive
Compression mode                         : Lossy
Bits/(Pixel*Frame)                       : 0.159
Stream size                              : 1.84 GiB (95%)
Writing library                          : Lavc52.97.0

Audio
ID                                       : 1
Format                                   : MPEG Audio
Format version                           : Version 1
Format profile                           : Layer 3
Mode                                     : Joint stereo
Mode extension                           : MS Stereo
Codec ID                                 : 55
Codec ID/Hint                            : MP3
Duration                                 : 1h 42mn
Bit rate mode                            : Constant
Bit rate                                 : 128 Kbps
Channel(s)                               : 2 channels
Sampling rate                            : 48.0 KHz
Compression mode                         : Lossy
Stream size                              : 93.8 MiB (5%)
Alignment                                : Aligned on interleaves
Interleave, duration                     : 24 ms (0.58 video frame)

Contraseña / Password:
Código:
peliculastomas01


Descargar Gratis / Download Free:

FreakShare | uploadable | FireDriver(PutLocker)

Código:
http://goo.gl/eokXYU

Notas:
----------------------------------------------------------------------------------------------------
-Si tienes problemas con el sonido reportamelo por MP, Ya le tengo solucion.
-Si algun enlace o link se cae, no lo avises comentando, hazlo por MP o por el reporte de links, asi me doy cuenta rapido.
-Verifica si he resubido los links aveces no lo comento en el foro, solo lo digo por el contenedor de links.
-Por favor, les pido que comenten sobre la calidad o sonido de la peli, asi los demas sabran lo que descargan.


----------------------------------------------------------------------------------------------------

Responder
Thanks given by:


Posibles temas similares...
Tema Autor Respuestas Vistas Último mensaje
Video Jason Bourne HD1080p Lat-Cast-Ing 5.1 (2016) dvdriplat 0 11 Hoy, 06:50 AM
Último mensaje: dvdriplat
Video Jason Bourne HD720p Lat-Cast-Ing 5.1 (2016) dvdriplat 0 9 Hoy, 06:48 AM
Último mensaje: dvdriplat
Video Fantastic Beasts and Where to Find Them [2016][3D H-SBS 1080p][Ing-Lat] profito 0 8 Hoy, 02:37 AM
Último mensaje: profito
  El halcón maltés [1941] [HDRIP] [DUAL ES IN] ][Cine Negro] Blade Master 666 0 5 Hoy, 12:58 AM
Último mensaje: Blade Master 666



Usuarios navegando en este tema: 1 invitado(s)

Powered By MyBB, © 2002-2017 MyBB Group.