Calificación:
  • 0 voto(s) - 0 Media
  • 1
  • 2
  • 3
  • 4
  • 5

[-]
Etiquetas
link meses… fd 9 condena de comedia 2013 castellano 1 screener br

9 meses… de condena (2013) [BR Screener/Castellano] [Comedia] [1 Link] [FD]

#1
Video 

Sinopsis / Synopsis:
Ariane Felder es una dura juez con unos valores intachables y un apego aún mayor por la soltería. Cuál es su sorpresa cuando se descubre embarazada sin saber quién es el padre. Una investigación y varios tests de paternidad después, Ariane descubre que el "culpable" no es ni más ni menos que Bob Dolan, un criminal de medio pelo perseguido por una terrible agresión. Sin saber cómo afrontar todo aquello, y con el torpe pero sincero delincuente ahora instalado en su casa, Ariane intentará llegar al fondo de la verdad y, sobre todo, decidir qué hacer con su nueva situación.

Ficha Técnica / Technical details:
Título original: 9 mois ferme
Título : 9 meses... de condena
Año: 2013
Duración: 85 min.
País: Francia
Director: Albert Dupontel
Guión: Albert Dupontel
Música: Christophe Julien
Fotografía: Vincent Mathias
Reparto: Sandrine Kiberlain, Albert Dupontel, Philippe Uchan, Nicolas Marié, Bouli Lanners, Philippe Duquesne, Gilles Gaston-Dreyfus, Michel Fau, Christian Hecq, Christine Garrivet
Productora: Manchester Films
Género: Comedia | Comedia negra
Estreno en España: 11/04/2014
Estreno en Francia: 16/10/2013

Trailer:




Datos Técnicos / Technical Data:
BR Screener | AVI | 1.37 GB | 720x304 | Castellano

Mira los primeros 3 minutos de la peli, antes de descargarla:
Código:
http://played.to/dh4xy0mcgujs

Capturas / Screenshots:


Mediainfo:
Código:
General
Complete name                            : 9 Meses de condena.BRS.Castellano(peliculastomas01).avi
Format                                   : AVI
Format/Info                              : Audio Video Interleave
File size                                : 1.37 GiB
Duration                                 : 1h 22mn
Overall bit rate                         : 2 382 Kbps
Writing application                      : VirtualDubMod 1.5.10.2 (build 2542/release)
Writing library                          : VirtualDubMod build 2542/release

Video
ID                                       : 0
Format                                   : MPEG-4 Visual
Format profile                           : Advanced Simple@L5
Format settings, BVOP                    : 2
Format settings, QPel                    : No
Format settings, GMC                     : No warppoints
Format settings, Matrix                  : Default (H.263)
Codec ID                                 : XVID
Codec ID/Hint                            : XviD
Duration                                 : 1h 22mn
Bit rate                                 : 2 181 Kbps
Width                                    : 720 pixels
Height                                   : 304 pixels
Display aspect ratio                     : 2.35:1
Frame rate                               : 23.976 fps
Color space                              : YUV
Chroma subsampling                       : 4:2:0
Bit depth                                : 8 bits
Scan type                                : Progressive
Compression mode                         : Lossy
Bits/(Pixel*Frame)                       : 0.416
Stream size                              : 1.25 GiB (92%)
Writing library                          : XviD 1.2.1 (UTC 2008-12-04)

Audio
ID                                       : 1
Format                                   : MPEG Audio
Format version                           : Version 1
Format profile                           : Layer 3
Mode                                     : Joint stereo
Mode extension                           : MS Stereo
Codec ID                                 : 55
Codec ID/Hint                            : MP3
Duration                                 : 1h 22mn
Bit rate mode                            : Constant
Bit rate                                 : 192 Kbps
Channel(s)                               : 2 channels
Sampling rate                            : 48.0 KHz
Compression mode                         : Lossy
Stream size                              : 113 MiB (8%)
Alignment                                : Aligned on interleaves
Interleave, duration                     : 42 ms (1.00 video frame)
Interleave, preload duration             : 504 ms
Writing library                          : LAME3.99r
Encoding settings                        : -m j -V 4 -q 3 -lowpass 18.6 -b 192


Contraseña / Password:
Código:
peliculastomas01


Descargar Gratis / Download Free:


FreakShare | uploadable | FireDriver(PutLocker)

Código:
http://goo.gl/yZkDtP

Notas:
----------------------------------------------------------------------------------------------------
-Si tienes problemas con el sonido reportamelo por MP, Ya le tengo solucion.
-Si algun enlace o link se cae, no lo avises comentando, hazlo por MP o por el reporte de links, asi me doy cuenta rapido.
-Verifica si he resubido los links aveces no lo comento en el foro, solo lo digo por el contenedor de links.
-Por favor, les pido que comenten sobre la calidad o sonido de la peli, asi los demas sabran lo que descargan.

----------------------------------------------------------------------------------------------------

Responder
Thanks given by:


Posibles temas similares...
Tema Autor Respuestas Vistas Último mensaje
Video Jason Bourne HD1080p Lat-Cast-Ing 5.1 (2016) dvdriplat 0 11 7 horas
Último mensaje: dvdriplat
Video Jason Bourne HD720p Lat-Cast-Ing 5.1 (2016) dvdriplat 0 9 7 horas
Último mensaje: dvdriplat
Video Fantastic Beasts and Where to Find Them [2016][3D H-SBS 1080p][Ing-Lat] profito 0 8 11 horas
Último mensaje: profito
  El halcón maltés [1941] [HDRIP] [DUAL ES IN] ][Cine Negro] Blade Master 666 0 4 Hoy, 12:58 AM
Último mensaje: Blade Master 666



Usuarios navegando en este tema: 1 invitado(s)

Powered By MyBB, © 2002-2017 MyBB Group.