Calificación:
  • 0 voto(s) - 0 Media
  • 1
  • 2
  • 3
  • 4
  • 5

[-]
Etiquetas
latino pl link agosto osage 2013 1080phd condado 1 drama

Agosto: Condado Osage (2013) [1080pHD/Latino] [Drama] [1 Link] [PL]

#1
Video 


Sinopsis:
Los Weston viven en una gran mansión en las afueras de Pawhuska, en Oklahoma. La desaparición del padre en extrañas circunstancias hace que la familia se reúna y que todas sus miserias salgan a la luz. Adaptación al cine de la obra de teatro del mismo título, ganadora del Premio Pulitzer en 2008.

Ficha Técnica:
Título original: August: Osage County
Otros Títulos: Agosto: Condado Osage
Año: 2013
Duración: 121 min.
País: Estados Unidos
Director: John Wells
Guión: Tracy Letts (Obra: Tracy Letts)
Música: Gustavo Santaolalla
Fotografía: Adriano Goldman
Reparto: Meryl Streep, Julia Roberts, Ewan McGregor, Chris Cooper, Abigail Breslin, Benedict Cumberbatch, Juliette Lewis, Margo Martindale, Dermot Mulroney, Sam Shepard, Misty Upham, Julianne Nicholson
Productora: Jean Doumanian Productions / The Weinstein Company
Género: Drama. Comedia | Familia. Melodrama. Comedia dramática

Trailer:




Datos Técnicos:
1080pHD | MKV | 2.07 GB | 1920x808 | Español Latino

Capturas:


Mediainfo:
Código:
General
Unique ID                                : 242588943471282688108963030804418595339 (0xB680EE58B19F6AF082E8FEC6EB510A0B)
Complete name                            : Agosto: Condado Osage.1080p.Latino(peliculastomas01).mkv
Format                                   : Matroska
Format version                           : Version 2
File size                                : 2.07 GiB
Duration                                 : 2h 0mn
Overall bit rate                         : 2 448 Kbps
Encoded date                             : UTC 2014-03-22 21:34:10
Writing application                      : mkvmerge v3.4.0 ('Rapunzel') built on May 15 2010 09:38:20
Writing library                          : libebml v0.8.0 + libmatroska v0.9.0

Video
ID                                       : 1
Format                                   : AVC
Format/Info                              : Advanced Video Codec
Format profile                           : High@L4.1
Format settings, CABAC                   : Yes
Format settings, ReFrames                : 5 frames
Codec ID                                 : V_MPEG4/ISO/AVC
Duration                                 : 2h 0mn
Bit rate                                 : 1 999 Kbps
Width                                    : 1 920 pixels
Height                                   : 808 pixels
Display aspect ratio                     : 2.40:1
Frame rate                               : 24.000 fps
Color space                              : YUV
Chroma subsampling                       : 4:2:0
Bit depth                                : 8 bits
Scan type                                : Progressive
Bits/(Pixel*Frame)                       : 0.054
Stream size                              : 1.65 GiB (80%)
Writing library                          : x264 core 138 r2358 9e941d1
Encoding settings                        : cabac=1 / ref=5 / deblock=1:1:1 / analyse=0x3:0x113 / me=hex / subme=7 / psy=1 / psy_rd=0.40:0.00 / mixed_ref=1 / me_range=16 / chroma_me=1 / trellis=1 / 8x8dct=1 / cqm=0 / deadzone=21,11 / fast_pskip=1 / chroma_qp_offset=-2 / threads=18 / lookahead_threads=3 / sliced_threads=0 / nr=0 / decimate=1 / interlaced=0 / bluray_compat=0 / constrained_intra=0 / bframes=4 / b_pyramid=2 / b_adapt=1 / b_bias=0 / direct=1 / weightb=1 / open_gop=0 / weightp=2 / keyint=250 / keyint_min=24 / scenecut=40 / intra_refresh=0 / rc_lookahead=40 / rc=2pass / mbtree=1 / bitrate=1999 / ratetol=1.0 / qcomp=0.60 / qpmin=0 / qpmax=69 / qpstep=4 / cplxblur=20.0 / qblur=0.5 / ip_ratio=1.40 / aq=1:0.60
Language                                 : Spanish
Default                                  : No
Forced                                   : No

Audio
ID                                       : 2
Format                                   : AC-3
Format/Info                              : Audio Coding 3
Mode extension                           : CM (complete main)
Codec ID                                 : A_AC3
Duration                                 : 2h 0mn
Bit rate mode                            : Constant
Bit rate                                 : 448 Kbps
Channel(s)                               : 6 channels
Channel positions                        : Front: L C R, Side: L R, LFE
Sampling rate                            : 48.0 KHz
Bit depth                                : 16 bits
Compression mode                         : Lossy
Stream size                              : 387 MiB (18%)
Language                                 : Spanish
Default                                  : Yes
Forced                                   : No

Text
ID                                       : 3
Format                                   : UTF-8
Codec ID                                 : S_TEXT/UTF8
Codec ID/Info                            : UTF-8 Plain Text
Language                                 : Spanish
Default                                  : Yes
Forced                                   : No

Contraseña / Password:
Código:
peliculastomas01


Descargar / Download:


FreakShare | uploadable | FireDriver(PutLocker)

Código:
http://goo.gl/SYUl8y

Notas:
----------------------------------------------------------------------------------------------------
-Si tienes problemas con el sonido reportamelo por MP, Ya le tengo solucion.
-Si algun enlace o link se cae, no lo avises comentando, hazlo por MP o por el reporte de links, asi me doy cuenta rapido.
-Verifica si he resubido los links aveces no lo comento en el foro, solo lo digo por el contenedor de links.
-Por favor, les pido que comenten sobre la calidad o sonido de la peli, asi los demas sabran lo que descargan.


----------------------------------------------------------------------------------------------------

Responder
Thanks given by:


Posibles temas similares...
Tema Autor Respuestas Vistas Último mensaje
Video Ultravioleta HD1080p Lat-Cast-Ing 5.1 (2006) dvdriplat 0 5 8 horas
Último mensaje: dvdriplat
Video Ultravioleta HD720p Lat-Cast-Ing 5.1 (2006) dvdriplat 0 4 9 horas
Último mensaje: dvdriplat
Video El Regreso De La Mosca HD1080p Lat-Cast-Ing 2.0 (1959) dvdriplat 0 7 Hoy, 05:13 AM
Último mensaje: dvdriplat
Video El Regreso De La Mosca HD720p Lat-Cast-Ing 2.0 (1959) dvdriplat 0 6 Hoy, 05:05 AM
Último mensaje: dvdriplat



Usuarios navegando en este tema: 1 invitado(s)

Powered By MyBB, © 2002-2017 MyBB Group.