Calificación:
  • 0 voto(s) - 0 Media
  • 1
  • 2
  • 3
  • 4
  • 5

[-]
Etiquetas
latino pl link agosto osage 2013 condado 1 drama dvdrip

Agosto: Condado Osage (2013) [DVDRip/Latino] [Drama] [1 Link] [PL]

#1
Video 


Sinopsis:
Los Weston viven en una gran mansión en las afueras de Pawhuska, en Oklahoma. La desaparición del padre en extrañas circunstancias hace que la familia se reúna y que todas sus miserias salgan a la luz. Adaptación al cine de la obra de teatro del mismo título, ganadora del Premio Pulitzer en 2008.

Ficha Técnica:
Título original: August: Osage County
Otros Títulos: Agosto: Condado Osage
Año: 2013
Duración: 121 min.
País: Estados Unidos
Director: John Wells
Guión: Tracy Letts (Obra: Tracy Letts)
Música: Gustavo Santaolalla
Fotografía: Adriano Goldman
Reparto: Meryl Streep, Julia Roberts, Ewan McGregor, Chris Cooper, Abigail Breslin, Benedict Cumberbatch, Juliette Lewis, Margo Martindale, Dermot Mulroney, Sam Shepard, Misty Upham, Julianne Nicholson
Productora: Jean Doumanian Productions / The Weinstein Company
Género: Drama. Comedia | Familia. Melodrama. Comedia dramática

Trailer:




Datos Técnicos:
DVDRip | AVI | 699 MB | 640x272 | Español Latino

Capturas:


Mediainfo:
Código:
General
Complete name                            : Agosto: Condado Osage.DVDRip.Latino(peliculastomas01).avi
Format                                   : AVI
Format/Info                              : Audio Video Interleave
File size                                : 699 MiB
Duration                                 : 2h 0mn
Overall bit rate                         : 809 Kbps
Recorded date                            : 20-03-2014
Writing application                      : VirtualDubMod 1.5.10.2 (build 2540/release) VirtualDubMod build 2540/release

Video
ID                                       : 0
Format                                   : MPEG-4 Visual
Format profile                           : Advanced Simple@L5
Format settings, BVOP                    : 2
Format settings, QPel                    : No
Format settings, GMC                     : No warppoints
Format settings, Matrix                  : Default (H.263)
Codec ID                                 : XVID
Codec ID/Hint                            : XviD
Duration                                 : 2h 0mn
Bit rate                                 : 688 Kbps
Width                                    : 640 pixels
Height                                   : 272 pixels
Display aspect ratio                     : 2.35:1
Frame rate                               : 24.000 fps
Color space                              : YUV
Chroma subsampling                       : 4:2:0
Bit depth                                : 8 bits
Scan type                                : Progressive
Compression mode                         : Lossy
Bits/(Pixel*Frame)                       : 0.165
Stream size                              : 594 MiB (85%)
Writing library                          : XviD 1.2.1 (UTC 2008-12-04)

Audio
ID                                       : 1
Format                                   : MPEG Audio
Format version                           : Version 1
Format profile                           : Layer 3
Mode                                     : Joint stereo
Mode extension                           : MS Stereo
Codec ID                                 : 55
Codec ID/Hint                            : MP3
Duration                                 : 2h 0mn
Bit rate mode                            : Constant
Bit rate                                 : 112 Kbps
Channel(s)                               : 2 channels
Sampling rate                            : 44.1 KHz
Compression mode                         : Lossy
Stream size                              : 96.8 MiB (14%)
Alignment                                : Split accross interleaves
Interleave, duration                     : 42 ms (1.00 video frame)
Interleave, preload duration             : 500 ms
Writing library                          : LAME3.98.2
Language                                 : un


Contraseña / Password:
Código:
peliculastomas01


Descargar / Download:


FreakShare | uploadable | FireDriver(PutLocker)

Código:
http://goo.gl/gfNWdX

Notas:
----------------------------------------------------------------------------------------------------
-Si tienes problemas con el sonido reportamelo por MP, Ya le tengo solucion.
-Si algun enlace o link se cae, no lo avises comentando, hazlo por MP o por el reporte de links, asi me doy cuenta rapido.
-Verifica si he resubido los links aveces no lo comento en el foro, solo lo digo por el contenedor de links.
-Por favor, les pido que comenten sobre la calidad o sonido de la peli, asi los demas sabran lo que descargan.


----------------------------------------------------------------------------------------------------

Responder
Thanks given by:


Posibles temas similares...
Tema Autor Respuestas Vistas Último mensaje
Video Fantastic Beasts and Where to Find Them [2016][3D H-SBS 1080p][Ing-Lat] profito 0 7 2 horas
Último mensaje: profito
  El halcón maltés [1941] [HDRIP] [DUAL ES IN] ][Cine Negro] Blade Master 666 0 4 3 horas
Último mensaje: Blade Master 666
Video Ultravioleta HD1080p Lat-Cast-Ing 5.1 (2006) dvdriplat 0 7 Ayer, 02:16 PM
Último mensaje: dvdriplat
Video Ultravioleta HD720p Lat-Cast-Ing 5.1 (2006) dvdriplat 0 5 Ayer, 02:05 PM
Último mensaje: dvdriplat



Usuarios navegando en este tema: 1 invitado(s)

Powered By MyBB, © 2002-2017 MyBB Group.