Calificación:
  • 0 voto(s) - 0 Media
  • 1
  • 2
  • 3
  • 4
  • 5

[-]
Etiquetas
latino las pl link 720phd noticias comedia con 2013 al 1 2 diablo

Al Diablo Con Las Noticias 2 (2013) [720pHD/Latino] [Comedia] [1 Link] [PL]

#1
Video 


Sinopsis:
El equipo de noticias del canal 4 compuesto por Ron (Will Ferrell), Brian (Paul Rudd), Champ (David Kochner) y Brick (Steve Carell) pasarán de trabajar en San Diego a Nueva York en GNN, un canal de noticias 24 horas donde tendrán que enfrentarse a otra manera de hacer noticias. Comenzará entonces la fricción entre Ron y una compañera de trabajo (Meagan Good), quien no sólo es mujer, sino que además es negra.

Ficha Técnica:
Título original: Anchorman 2: The Legend Continues
Otros Títulos: Al diablo con las noticias 2 / / El reportero 2
Año: 2013
Duración: 119 min.
País: Estados Unidos
Director: Adam McKay
Guión: Will Ferrell, Adam McKay (Personajes: Will Ferrell)
Música: Andrew Feltenstein, John Nau
Fotografía: Oliver Wood
Reparto: Will Ferrell, Steve Carell, Paul Rudd, David Koechner, Luke Wilson, Christina Applegate, Vince Vaughn, Jim Carrey, Kristen Wiig, Harrison Ford
Productora: Apatow Productions / Gary Sanchez Productions / Paramount Pictures
Género: Comedia | Periodismo. Años 80. Televisión. Secuela

Trailer:




Datos Técnicos:
720pHD | MKV | 1.16 GB | 1280x528 | Español Latino

Capturas:


Mediainfo:
Código:
General
Unique ID                                : 190487022290999673508241776862505824874 (0x8F4E774D65B758D89AAB00CA88A1726A)
Complete name                            : Al Diablo Con Las Noticias 2.720p.Latino(peliculastomas01).mkv
Format                                   : Matroska
Format version                           : Version 2
File size                                : 1.16 GiB
Duration                                 : 2h 3mn
Overall bit rate                         : 1 349 Kbps
Encoded date                             : UTC 2014-03-22 23:11:04
Writing application                      : mkvmerge v3.4.0 ('Rapunzel') built on May 15 2010 09:38:20
Writing library                          : libebml v0.8.0 + libmatroska v0.9.0

Video
ID                                       : 1
Format                                   : AVC
Format/Info                              : Advanced Video Codec
Format profile                           : High@L4.1
Format settings, CABAC                   : Yes
Format settings, ReFrames                : 6 frames
Codec ID                                 : V_MPEG4/ISO/AVC
Duration                                 : 2h 3mn
Bit rate                                 : 899 Kbps
Width                                    : 1 280 pixels
Height                                   : 528 pixels
Display aspect ratio                     : 2.40:1
Frame rate                               : 23.976 fps
Color space                              : YUV
Chroma subsampling                       : 4:2:0
Bit depth                                : 8 bits
Scan type                                : Progressive
Bits/(Pixel*Frame)                       : 0.055
Stream size                              : 769 MiB (65%)
Writing library                          : x264 core 138 r2358 9e941d1
Encoding settings                        : cabac=1 / ref=6 / deblock=1:1:1 / analyse=0x3:0x113 / me=hex / subme=7 / psy=1 / psy_rd=0.40:0.00 / mixed_ref=1 / me_range=16 / chroma_me=1 / trellis=1 / 8x8dct=1 / cqm=0 / deadzone=21,11 / fast_pskip=1 / chroma_qp_offset=-2 / threads=18 / lookahead_threads=3 / sliced_threads=0 / nr=0 / decimate=1 / interlaced=0 / bluray_compat=0 / constrained_intra=0 / bframes=4 / b_pyramid=2 / b_adapt=1 / b_bias=0 / direct=1 / weightb=0 / open_gop=0 / weightp=2 / keyint=250 / keyint_min=23 / scenecut=40 / intra_refresh=0 / rc_lookahead=40 / rc=2pass / mbtree=1 / bitrate=899 / ratetol=1.0 / qcomp=0.60 / qpmin=0 / qpmax=69 / qpstep=4 / cplxblur=20.0 / qblur=0.5 / ip_ratio=1.40 / aq=1:0.60
Language                                 : Spanish
Default                                  : No
Forced                                   : No

Audio
ID                                       : 2
Format                                   : AC-3
Format/Info                              : Audio Coding 3
Mode extension                           : CM (complete main)
Codec ID                                 : A_AC3
Duration                                 : 2h 3mn
Bit rate mode                            : Constant
Bit rate                                 : 448 Kbps
Channel(s)                               : 6 channels
Channel positions                        : Front: L C R, Side: L R, LFE
Sampling rate                            : 48.0 KHz
Bit depth                                : 16 bits
Compression mode                         : Lossy
Stream size                              : 394 MiB (33%)
Language                                 : Spanish
Default                                  : No
Forced                                   : No

Text
ID                                       : 3
Format                                   : UTF-8
Codec ID                                 : S_TEXT/UTF8
Codec ID/Info                            : UTF-8 Plain Text
Language                                 : Spanish
Default                                  : Yes
Forced                                   : No


Contraseña / Password:
Código:
peliculastomas01


Descargar / Download:


FreakShare | uploadable | FireDriver(PutLocker)

Código:
http://goo.gl/6Zom3V

Notas:
----------------------------------------------------------------------------------------------------
-Si tienes problemas con el sonido reportamelo por MP, Ya le tengo solucion.
-Si algun enlace o link se cae, no lo avises comentando, hazlo por MP o por el reporte de links, asi me doy cuenta rapido.
-Verifica si he resubido los links aveces no lo comento en el foro, solo lo digo por el contenedor de links.
-Por favor, les pido que comenten sobre la calidad o sonido de la peli, asi los demas sabran lo que descargan.


----------------------------------------------------------------------------------------------------

Responder
Thanks given by:


Posibles temas similares...
Tema Autor Respuestas Vistas Último mensaje
Video Ultravioleta HD1080p Lat-Cast-Ing 5.1 (2006) dvdriplat 0 5 8 horas
Último mensaje: dvdriplat
Video Ultravioleta HD720p Lat-Cast-Ing 5.1 (2006) dvdriplat 0 4 9 horas
Último mensaje: dvdriplat
Video El Regreso De La Mosca HD1080p Lat-Cast-Ing 2.0 (1959) dvdriplat 0 7 Hoy, 05:13 AM
Último mensaje: dvdriplat
Video El Regreso De La Mosca HD720p Lat-Cast-Ing 2.0 (1959) dvdriplat 0 6 Hoy, 05:05 AM
Último mensaje: dvdriplat



Usuarios navegando en este tema: 1 invitado(s)

Powered By MyBB, © 2002-2017 MyBB Group.