Calificación:
  • 0 voto(s) - 0 Media
  • 1
  • 2
  • 3
  • 4
  • 5

[-]
Etiquetas
latino las link fd noticias comedia con 2013 al 1 2 diablo dvdrip

Al Diablo Con Las Noticias 2 (2013) [DVDRip/Latino] [Comedia] [1 Link] [FD]

#1
Video 


Sinopsis:
El equipo de noticias del canal 4 compuesto por Ron (Will Ferrell), Brian (Paul Rudd), Champ (David Kochner) y Brick (Steve Carell) pasarán de trabajar en San Diego a Nueva York en GNN, un canal de noticias 24 horas donde tendrán que enfrentarse a otra manera de hacer noticias. Comenzará entonces la fricción entre Ron y una compañera de trabajo (Meagan Good), quien no sólo es mujer, sino que además es negra.

Ficha Técnica:
Título original: Anchorman 2: The Legend Continues
Otros Títulos: Al diablo con las noticias 2 / / El reportero 2
Año: 2013
Duración: 119 min.
País: Estados Unidos
Director: Adam McKay
Guión: Will Ferrell, Adam McKay (Personajes: Will Ferrell)
Música: Andrew Feltenstein, John Nau
Fotografía: Oliver Wood
Reparto: Will Ferrell, Steve Carell, Paul Rudd, David Koechner, Luke Wilson, Christina Applegate, Vince Vaughn, Jim Carrey, Kristen Wiig, Harrison Ford
Productora: Apatow Productions / Gary Sanchez Productions / Paramount Pictures
Género: Comedia | Periodismo. Años 80. Televisión. Secuela

Trailer:




Datos Técnicos:
DVDRip | AVI | 699 MB | 640x272 | Español Latino

Capturas:


Mediainfo:
Código:
General
Complete name                            : Al Diablo Con Las Noticias 2.DVDRip.Latino(peliculastomas01).avi
Format                                   : AVI
Format/Info                              : Audio Video Interleave
File size                                : 699 MiB
Duration                                 : 2h 3mn
Overall bit rate                         : 794 Kbps
Recorded date                            : 21-03-2014
Writing application                      : VirtualDubMod 1.5.10.2 (build 2540/release) VirtualDubMod build 2540/release

Video
ID                                       : 0
Format                                   : MPEG-4 Visual
Format profile                           : Advanced Simple@L5
Format settings, BVOP                    : 2
Format settings, QPel                    : No
Format settings, GMC                     : No warppoints
Format settings, Matrix                  : Default (H.263)
Codec ID                                 : XVID
Codec ID/Hint                            : XviD
Duration                                 : 2h 3mn
Bit rate                                 : 672 Kbps
Width                                    : 640 pixels
Height                                   : 272 pixels
Display aspect ratio                     : 2.35:1
Frame rate                               : 23.976 fps
Color space                              : YUV
Chroma subsampling                       : 4:2:0
Bit depth                                : 8 bits
Scan type                                : Progressive
Compression mode                         : Lossy
Bits/(Pixel*Frame)                       : 0.161
Stream size                              : 592 MiB (85%)
Writing library                          : XviD 1.2.1 (UTC 2008-12-04)

Audio
ID                                       : 1
Format                                   : MPEG Audio
Format version                           : Version 1
Format profile                           : Layer 3
Mode                                     : Joint stereo
Mode extension                           : MS Stereo
Codec ID                                 : 55
Codec ID/Hint                            : MP3
Duration                                 : 2h 3mn
Bit rate mode                            : Constant
Bit rate                                 : 112 Kbps
Channel(s)                               : 2 channels
Sampling rate                            : 44.1 KHz
Compression mode                         : Lossy
Stream size                              : 98.6 MiB (14%)
Alignment                                : Split accross interleaves
Interleave, duration                     : 42 ms (1.00 video frame)
Interleave, preload duration             : 500 ms
Writing library                          : LAME3.98.2
Language                                 : un


Contraseña / Password:
Código:
peliculastomas01


Descargar / Download:


FreakShare | uploadable | FireDriver(PutLocker)

Código:
http://goo.gl/9ZJNO9

Notas:
----------------------------------------------------------------------------------------------------
-Si tienes problemas con el sonido reportamelo por MP, Ya le tengo solucion.
-Si algun enlace o link se cae, no lo avises comentando, hazlo por MP o por el reporte de links, asi me doy cuenta rapido.
-Verifica si he resubido los links aveces no lo comento en el foro, solo lo digo por el contenedor de links.
-Por favor, les pido que comenten sobre la calidad o sonido de la peli, asi los demas sabran lo que descargan.


----------------------------------------------------------------------------------------------------

Responder
Thanks given by:


Posibles temas similares...
Tema Autor Respuestas Vistas Último mensaje
  El velo pintado [1934] [DVDRip] [DUAL ES IN] [Romance Drama] Blade Master 666 0 9 10 horas
Último mensaje: Blade Master 666
  Moby Dick [1956] [HDRIP] [DUAL ES IN] [Aventuras Drama] Blade Master 666 0 7 10 horas
Último mensaje: Blade Master 666
Video Hotel Transylvania 2 [2015][3D H-SBS 1080p][Ing-Lat] profito 0 8 Ayer, 10:12 PM
Último mensaje: profito
Video Hotel Transylvania [2012][3D H-SBS 1080p][Ing-Lat] profito 0 8 Ayer, 10:03 PM
Último mensaje: profito



Usuarios navegando en este tema: 1 invitado(s)

Powered By MyBB, © 2002-2017 MyBB Group.