Calificación:
  • 0 voto(s) - 0 Media
  • 1
  • 2
  • 3
  • 4
  • 5

[-]
Etiquetas
link alpha fd 2013 castellano 1 acción dvdrip

Alpha (2013) [DVDRip/Castellano] [Acción] [1 Link] [FD]

#1
Video 

Sinopsis / Synopsis:
"ALPHA" es un drama criminal que narra la historia de Eric, que intenta rehacer su vida tras ocho años en prisión. Deberá hacerse cargo de su madre y de su hermano pequeño Edu, quién sigue peligrosamente sus pasos en el mundo delictivo. Pronto verá como sus dos amigos y antiguos compañeros en el mundo del narcotráfico han tomado direcciones opuestas. Uno, Tom, continúa en el mundo del hampa y se ha convertido en el jefe de una banda de delincuentes que actúa con la complicidad de varios policías corruptos, mientras que el otro, Toni, ahora convertido en policía, pondrá todo su empeño en apartar a su amigo de las malas compañías.

Ficha Técnica / Technical details:
Título original: Alpha
Año: 2013
Duración: 112 min.
País: España
Director: Joan Cutrina
Música: Jaume Sole
Fotografía: Pau Esteve Birba
Reparto: Miquel Fernández, Alex Barahona, Juan Carlos Vellido, Irene Montalà, Carlos Lasarte, Xènia Tostado, Adolfo Fernández, Álvaro Cañete, Alexandra Mezcua, Chuck Torres, Daniel Estulin, Emmanuel Esparza, Javier Nalla, Sergi Arola
Productora: Zip Films / Genco Films
Género: Acción. Thriller | Policíaco
Estreno en USA:---
Estreno en España: 08/11/2013

Trailer:




Datos Técnicos / Technical Data:
DVDRip | AVI | 849 MB | 720x316 | Castellano

Capturas / Screenshots:


Mediainfo:
Código:
General
Complete name                            : ALPHA.DVDRip.Castellano(peliculastomas01).avi
Format                                   : AVI
Format/Info                              : Audio Video Interleave
File size                                : 849 MiB
Duration                                 : 1h 51mn
Overall bit rate                         : 1 062 Kbps
Movie name                               : ALPHA.Title1
Writing application                      : Lavf54.63.104

Video
ID                                       : 0
Format                                   : AVC
Format/Info                              : Advanced Video Codec
Format profile                           : Main@L3.0
Format settings, CABAC                   : Yes
Format settings, ReFrames                : 1 frame
Format settings, GOP                     : M=1, N=24
Codec ID                                 : H264
Duration                                 : 1h 51mn
Bit rate                                 : 859 Kbps
Width                                    : 720 pixels
Height                                   : 316 pixels
Display aspect ratio                     : 2.25:1
Frame rate                               : 25.000 fps
Color space                              : YUV
Chroma subsampling                       : 4:2:0
Bit depth                                : 8 bits
Scan type                                : Progressive
Bits/(Pixel*Frame)                       : 0.151
Stream size                              : 687 MiB (81%)
Writing library                          : x264 core
Color primaries                          : BT.601-6 525, BT.1358 525, BT.1700 NTSC, SMPTE 170M
Transfer characteristics                 : BT.709-5, BT.1361
Matrix coefficients                      : BT.601-6 525, BT.1358 525, BT.1700 NTSC, SMPTE 170M

Audio
ID                                       : 1
Format                                   : AC-3
Format/Info                              : Audio Coding 3
Mode extension                           : CM (complete main)
Codec ID                                 : 2000
Duration                                 : 1h 51mn
Bit rate mode                            : Constant
Bit rate                                 : 192 Kbps
Channel(s)                               : 2 channels
Channel positions                        : Front: L R
Sampling rate                            : 48.0 KHz
Bit depth                                : 16 bits
Compression mode                         : Lossy
Stream size                              : 153 MiB (18%)
Alignment                                : Aligned on interleaves
Interleave, duration                     : 32 ms (0.80 video frame)


Contraseña / Password:
Código:
peliculastomas01


Descargar Gratis / Download Free:


FreakShare | uploadable | FireDriver(PutLocker)

Código:
http://goo.gl/p7NJ8c

Notas:
----------------------------------------------------------------------------------------------------
-Si tienes problemas con el sonido reportamelo por MP, Ya le tengo solucion.
-Si algun enlace o link se cae, no lo avises comentando, hazlo por MP o por el reporte de links, asi me doy cuenta rapido.
-Verifica si he resubido los links aveces no lo comento en el foro, solo lo digo por el contenedor de links.
-Por favor, les pido que comenten sobre la calidad o sonido de la peli, asi los demas sabran lo que descargan.


----------------------------------------------------------------------------------------------------

Responder
Thanks given by:


Posibles temas similares...
Tema Autor Respuestas Vistas Último mensaje
Video Jason Bourne HD1080p Lat-Cast-Ing 5.1 (2016) dvdriplat 0 11 7 horas
Último mensaje: dvdriplat
Video Jason Bourne HD720p Lat-Cast-Ing 5.1 (2016) dvdriplat 0 9 7 horas
Último mensaje: dvdriplat
Video Fantastic Beasts and Where to Find Them [2016][3D H-SBS 1080p][Ing-Lat] profito 0 8 11 horas
Último mensaje: profito
  El halcón maltés [1941] [HDRIP] [DUAL ES IN] ][Cine Negro] Blade Master 666 0 4 Hoy, 12:58 AM
Último mensaje: Blade Master 666



Usuarios navegando en este tema: 1 invitado(s)

Powered By MyBB, © 2002-2017 MyBB Group.