Calificación:
  • 0 voto(s) - 0 Media
  • 1
  • 2
  • 3
  • 4
  • 5

[-]
Etiquetas
soldado pl de américa el invierno cam castellano 2 2014 capitán

Capitán América 2: El soldado de invierno (2014) [CAM/Castellano] [PL]

#1
Video 


Sinopsis:
Tras los devastadores acontecimientos acaecidos en Nueva York con Los Vengadores, "Capitán América. El Soldado de Invierno" de Marvel nos cuenta cómo Steve Rogers, alias el Capitán América, vive tranquilamente en Washington, D.C. intentando adaptarse al mundo moderno. Pero cuando atacan a un colega de S.H.I.E.L.D., Steve se ve envuelto en una trama de intrigas que amenaza con poner en peligro al mundo. El Capitán América une fuerzas con la Viuda Negra y lucha por sacar a la luz una conspiración cada vez mayor mientras hace frente a asesinos profesionales enviados para silenciarle. Cuando por fin se revela la magnitud de la malvada trama, el Capitán América y la Viuda Negra van a contar con la ayuda de un nuevo aliado, el Halcón. Pero deberán enfrentarse a un enemigo inesperado y extraordinario: el Soldado de Invierno.

Ficha Técnica:
Título original: Captain America: The Winter Soldier (Captain America 2)
Título : Capitán América: El soldado de invierno
Año: 2014
Duración: 128 min.
País: Estados Unidos
Director: Anthony Russo, Joe Russo
Guión: Christopher Markus, Stephen McFeely (Cómic: Joe Simon, Jack Kirby)
Música: Henry Jackman
Fotografía: Trent Opaloch
Reparto: Chris Evans, Scarlett Johansson, Samuel L. Jackson, Robert Redford, Toby Jones, Cobie Smulders, Emily VanCamp, Anthony Mackie, Sebastian Stan, Frank Grillo, Hayley Atwell, Georges St-Pierre, Maximiliano Hernández, Stan Lee
Productora: Marvel Studios / Marvel Entertainment / Sony Pictures Imageworks (SPI)
Género: Acción. Fantástico | Superhéroes. Cómic. Marvel Comics. Secuela
Estreno en USA: 04/04/2014
Estreno en España: 28/03/2014

Trailer:




Mira los primeros 3 minutos de la peli, antes de descargarla:
Código:
http://played.to/tm2jeqr09jre

Datos Técnicos:
CAM | AVI | 1.57 GB | 720x348 | Español Latino

Capturas:


Mediainfo:
Código:
General
Complete name                            : Capitan.America.El.soldado.de.invierno.CAM.Castellano(peliculastomas01).avi
Format                                   : AVI
Format/Info                              : Audio Video Interleave
File size                                : 1.57 GiB
Duration                                 : 2h 4mn
Overall bit rate                         : 1 808 Kbps
Writing application                      : VirtualDubMod 1.5.10.2 (build 2540/release)
Writing library                          : VirtualDubMod build 2540/release

Video
ID                                       : 0
Format                                   : MPEG-4 Visual
Format profile                           : Advanced Simple@L5
Format settings, BVOP                    : 2
Format settings, QPel                    : No
Format settings, GMC                     : No warppoints
Format settings, Matrix                  : Default (MPEG)
Muxing mode                              : Packed bitstream
Codec ID                                 : XVID
Codec ID/Hint                            : XviD
Duration                                 : 2h 4mn
Bit rate                                 : 1 606 Kbps
Width                                    : 720 pixels
Height                                   : 348 pixels
Display aspect ratio                     : 2.069
Frame rate                               : 25.000 fps
Color space                              : YUV
Chroma subsampling                       : 4:2:0
Bit depth                                : 8 bits
Scan type                                : Progressive
Compression mode                         : Lossy
Bits/(Pixel*Frame)                       : 0.256
Stream size                              : 1.40 GiB (89%)
Writing library                          : XviD 64

Audio
ID                                       : 1
Format                                   : MPEG Audio
Format version                           : Version 1
Format profile                           : Layer 3
Codec ID                                 : 55
Codec ID/Hint                            : MP3
Duration                                 : 2h 4mn
Bit rate mode                            : Constant
Bit rate                                 : 192 Kbps
Channel(s)                               : 2 channels
Sampling rate                            : 44.1 KHz
Compression mode                         : Lossy
Stream size                              : 171 MiB (11%)
Alignment                                : Split accross interleaves
Interleave, duration                     : 40 ms (1.00 video frame)
Interleave, preload duration             : 500 ms


Contraseña / Password:
Código:
peliculastomas01


Descargar / Download:


FreakShare | uploadable | FireDriver(PutLocker)

Código:
http://goo.gl/U34Kze

Notas:
----------------------------------------------------------------------------------------------------
-Si tienes problemas con el sonido reportamelo por MP, Ya le tengo solucion.
-Si algun enlace o link se cae, no lo avises comentando, hazlo por MP o por el reporte de links, asi me doy cuenta rapido.
-Verifica si he resubido los links aveces no lo comento en el foro, solo lo digo por el contenedor de links.
-Por favor, les pido que comenten sobre la calidad o sonido de la peli, asi los demas sabran lo que descargan.


----------------------------------------------------------------------------------------------------

Responder
Thanks given by:


Posibles temas similares...
Tema Autor Respuestas Vistas Último mensaje
  Las ratas del desierto [1953] [DVDRip] [Castellano] [Bélico IIGM] Blade Master 666 0 28 04-28-2017, 03:24 AM
Último mensaje: Blade Master 666
  Infierno en la bahía de San Francisco [1955] [DVDRip] [DUAL ES IN] [Thriller Drama] Blade Master 666 0 14 04-28-2017, 03:21 AM
Último mensaje: Blade Master 666
Video Turbo [2013][3D H-SBS 1080p][Ing-Lat] profito 0 8 04-28-2017, 02:45 AM
Último mensaje: profito
Video The Lion King III [2004][FullHD 1080][Ing-Lat] profito 0 5 04-27-2017, 11:28 PM
Último mensaje: profito



Usuarios navegando en este tema: 1 invitado(s)

Powered By MyBB, © 2002-2017 MyBB Group.