Calificación:
  • 0 voto(s) - 0 Media
  • 1
  • 2
  • 3
  • 4
  • 5

[-]
Etiquetas
latino fantástico pl link 720phd vengador el primer capitan 1 2011 america

Capitan America El Primer Vengador (2011) [720pHD/Latino] [Fantástico] [1 Link] [PL]

#1
Video 


Sinopsis:
Nacido durante la Gran Depresión (años 30), Steve Rogers creció como un chico enclenque en una familia pobre. Horrorizado por las noticias que llegaban de Europa sobre los nazis, decidió enrolarse en el ejército; sin embargo, debido a su precaria salud, fue rechazado una y otra vez. Enternecido por sus súplicas, el General Chester Phillips le ofreció la oportunidad de participar en un experimento especial: la "Operación Renacimiento". Tras administrarle el "Suero Super-Soldado" y bombardearlo con "vitarrayos", el cuerpo de Steve se hace perfecto. A continuación, se sometió a un intensivo programa de entrenamiento físico y táctico. Tres meses después, le encomendaron su primera misión como Capitán América. Armado con un escudo indestructible, emprenderá la guerra contra el Mal como centinela de la libertad y líder de los Vengadores.

Ficha Técnica:
Título original: Captain America: The First Avenger
Título : Capitán América: El primer vengador
Año: 2011
Duración: 125 min.
País: Estados Unidos
Director: Joe Johnston
Guión: Christopher Markus, Stephen McFeely (Cómic: Joe Simon, Jack Kirby)
Música: Alan Silvestri
Fotografía: Shelly Johnson
Reparto: Chris Evans, Hugo Weaving, Hayley Atwell, Tommy Lee Jones, Sebastian Stan, Stanley Tucci, Toby Jones, Dominic Cooper, Neal McDonough, Richard Armitage, David Bradley, Kenneth Choi, Natalie Dormer, Derek Luke, Jenna-Louise Coleman, JJ Feild, Bruno Ricci, Laura Haddock, Samuel L. Jackson
Productora: Marvel Studios / Paramount Pictures
Género: Acción. Fantástico | Superhéroes. Cómic. Marvel Comics. II Guerra Mundial. 3-D. Nazismo. Steampunk

Trailer:




Datos Técnicos:
720pHD | MKV | 1.50 GB | 1280x544 | Español Latino

Capturas:


Mediainfo:
Código:
General
Unique ID                                : 108336848264317918006411550005386544697 (0x5180EB030C9EE891FD4A3B3281780639)
Complete name                            : Capitan America El Primer Vengador.720p.Latino(peliculastomas01).mkv
Format                                   : Matroska
Format version                           : Version 2
File size                                : 1.50 GiB
Duration                                 : 2h 4mn
Overall bit rate                         : 1 727 Kbps
Writing application                      : HandBrake 0.9.9
Writing library                          : libmkv 0.6.5

Video
ID                                       : 1
Format                                   : AVC
Format/Info                              : Advanced Video Codec
Format profile                           : High@L4.1
Format settings, CABAC                   : Yes
Format settings, ReFrames                : 4 frames
Codec ID                                 : V_MPEG4/ISO/AVC
Duration                                 : 2h 4mn
Bit rate                                 : 1 400 Kbps
Width                                    : 1 280 pixels
Height                                   : 544 pixels
Display aspect ratio                     : 2.35:1
Frame rate mode                          : Variable
Frame rate                               : 23.976 fps
Color space                              : YUV
Chroma subsampling                       : 4:2:0
Bit depth                                : 8 bits
Scan type                                : Progressive
Bits/(Pixel*Frame)                       : 0.084
Stream size                              : 1.19 GiB (79%)
Writing library                          : x264 core 130 r2273 b3065e6
Encoding settings                        : cabac=1 / ref=3 / deblock=1:-1:-1 / analyse=0x3:0x113 / me=hex / subme=7 / psy=1 / psy_rd=1.00:0.15 / mixed_ref=1 / me_range=16 / chroma_me=1 / trellis=1 / 8x8dct=1 / cqm=0 / deadzone=21,11 / fast_pskip=1 / chroma_qp_offset=-3 / threads=24 / lookahead_threads=4 / sliced_threads=0 / nr=0 / decimate=1 / interlaced=0 / bluray_compat=0 / constrained_intra=0 / bframes=3 / b_pyramid=2 / b_adapt=1 / b_bias=0 / direct=1 / weightb=1 / open_gop=0 / weightp=2 / keyint=240 / keyint_min=24 / scenecut=40 / intra_refresh=0 / rc_lookahead=40 / rc=abr / mbtree=1 / bitrate=1400 / ratetol=1.0 / qcomp=0.60 / qpmin=0 / qpmax=69 / qpstep=4 / vbv_maxrate=62500 / vbv_bufsize=78125 / nal_hrd=none / ip_ratio=1.40 / aq=1:1.00
Language                                 : English
Default                                  : Yes
Forced                                   : No
Color primaries                          : BT.709-5, BT.1361, IEC 61966-2-4, SMPTE RP177
Transfer characteristics                 : BT.709-5, BT.1361
Matrix coefficients                      : BT.709-5, BT.1361, IEC 61966-2-4 709, SMPTE RP177

Audio
ID                                       : 2
Format                                   : AC-3
Format/Info                              : Audio Coding 3
Mode extension                           : CM (complete main)
Codec ID                                 : A_AC3
Duration                                 : 2h 4mn
Bit rate mode                            : Constant
Bit rate                                 : 320 Kbps
Channel(s)                               : 6 channels
Channel positions                        : Front: L C R, Side: L R, LFE
Sampling rate                            : 48.0 KHz
Bit depth                                : 16 bits
Compression mode                         : Lossy
Stream size                              : 284 MiB (19%)
Language                                 : Spanish
Default                                  : Yes
Forced                                   : No


Contraseña / Password:
Código:
peliculastomas01


Descargar / Download:


FreakShare | uploadable | FireDriver(PutLocker)

Código:
http://goo.gl/C1c5uv

Notas:
----------------------------------------------------------------------------------------------------
-Si tienes problemas con el sonido reportamelo por MP, Ya le tengo solucion.
-Si algun enlace o link se cae, no lo avises comentando, hazlo por MP o por el reporte de links, asi me doy cuenta rapido.
-Verifica si he resubido los links aveces no lo comento en el foro, solo lo digo por el contenedor de links.
-Por favor, les pido que comenten sobre la calidad o sonido de la peli, asi los demas sabran lo que descargan.


----------------------------------------------------------------------------------------------------

Responder
Thanks given by:


Posibles temas similares...
Tema Autor Respuestas Vistas Último mensaje
Video Ultravioleta HD1080p Lat-Cast-Ing 5.1 (2006) dvdriplat 0 5 6 horas
Último mensaje: dvdriplat
Video Ultravioleta HD720p Lat-Cast-Ing 5.1 (2006) dvdriplat 0 4 7 horas
Último mensaje: dvdriplat
Video El Regreso De La Mosca HD1080p Lat-Cast-Ing 2.0 (1959) dvdriplat 0 7 Hoy, 05:13 AM
Último mensaje: dvdriplat
Video El Regreso De La Mosca HD720p Lat-Cast-Ing 2.0 (1959) dvdriplat 0 6 Hoy, 05:05 AM
Último mensaje: dvdriplat



Usuarios navegando en este tema: 1 invitado(s)

Powered By MyBB, © 2002-2017 MyBB Group.