Calificación:
  • 0 voto(s) - 0 Media
  • 1
  • 2
  • 3
  • 4
  • 5

[-]
Etiquetas
pl link the subtitulada captain cam soldier 1 2 2014 winter america

Captain America 2: The Winter Soldier (2014) [CAM/Subtitulada] [1 Link] [PL]

#1
Video 


Sinopsis:
Tras los devastadores acontecimientos acaecidos en Nueva York con Los Vengadores, "Capitán América. El Soldado de Invierno" de Marvel nos cuenta cómo Steve Rogers, alias el Capitán América, vive tranquilamente en Washington, D.C. intentando adaptarse al mundo moderno. Pero cuando atacan a un colega de S.H.I.E.L.D., Steve se ve envuelto en una trama de intrigas que amenaza con poner en peligro al mundo. El Capitán América une fuerzas con la Viuda Negra y lucha por sacar a la luz una conspiración cada vez mayor mientras hace frente a asesinos profesionales enviados para silenciarle. Cuando por fin se revela la magnitud de la malvada trama, el Capitán América y la Viuda Negra van a contar con la ayuda de un nuevo aliado, el Halcón. Pero deberán enfrentarse a un enemigo inesperado y extraordinario: el Soldado de Invierno.

Ficha Técnica:
Título original: Captain America: The Winter Soldier (Captain America 2)
Año: 2014
Duración: 128 min.
País: Estados Unidos
Director: Anthony Russo, Joe Russo
Guión: Christopher Markus, Stephen McFeely (Cómic: Joe Simon, Jack Kirby)
Música: Henry Jackman
Fotografía: Trent Opaloch
Reparto: Chris Evans, Scarlett Johansson, Samuel L. Jackson, Robert Redford, Toby Jones, Cobie Smulders, Emily VanCamp, Anthony Mackie, Sebastian Stan, Frank Grillo, Hayley Atwell, Georges St-Pierre, Maximiliano Hernández, Stan Lee
Productora: Marvel Studios / Marvel Entertainment / Sony Pictures Imageworks (SPI)
Género: Acción. Fantástico | Superhéroes. Cómic. Marvel Comics. Secuela
Estreno en USA: 04/04/2014
Estreno en España: 28/03/2014

Trailer:




Mira los primeros 3 minutos de la pelicula, antes de descargarla:
Código:
http://played.to/h4o3pap8zago

Datos Técnicos:
CAM | AVI | 939 MB | 640x272 | Sub Español

Capturas:


Mediainfo:
Código:
General
Complete name                            : Captain America The Winter Soldier.CAM.Sub(peliculastomas01).avi
Format                                   : AVI
Format/Info                              : Audio Video Interleave
File size                                : 940 MiB
Duration                                 : 1h 57mn
Overall bit rate                         : 1 118 Kbps
Writing application                      : Lavf52.84.0

Video
ID                                       : 0
Format                                   : MPEG-4 Visual
Codec ID                                 : FMP4
Duration                                 : 1h 57mn
Bit rate                                 : 976 Kbps
Width                                    : 640 pixels
Height                                   : 272 pixels
Display aspect ratio                     : 2.35:1
Frame rate                               : 29.970 fps
Color space                              : YUV
Chroma subsampling                       : 4:2:0
Compression mode                         : Lossy
Bits/(Pixel*Frame)                       : 0.187
Stream size                              : 820 MiB (87%)

Audio
ID                                       : 1
Format                                   : MPEG Audio
Format version                           : Version 1
Format profile                           : Layer 3
Mode                                     : Joint stereo
Mode extension                           : MS Stereo
Codec ID                                 : 55
Codec ID/Hint                            : MP3
Duration                                 : 1h 57mn
Bit rate mode                            : Constant
Bit rate                                 : 128 Kbps
Channel(s)                               : 2 channels
Sampling rate                            : 48.0 KHz
Compression mode                         : Lossy
Stream size                              : 108 MiB (11%)
Alignment                                : Aligned on interleaves
Interleave, duration                     : 24 ms (0.72 video frame)
Interleave, preload duration             : 24 ms


Contraseña / Password:
Código:
peliculastomas01


Descargar / Download:


FreakShare | uploadable | FireDriver(PutLocker)

Código:
http://goo.gl/cdgEvO

Notas:
----------------------------------------------------------------------------------------------------
-Si tienes problemas con el sonido reportamelo por MP, Ya le tengo solucion.
-Si algun enlace o link se cae, no lo avises comentando, hazlo por MP o por el reporte de links, asi me doy cuenta rapido.
-Verifica si he resubido los links aveces no lo comento en el foro, solo lo digo por el contenedor de links.
-Por favor, les pido que comenten sobre la calidad o sonido de la peli, asi los demas sabran lo que descargan.


----------------------------------------------------------------------------------------------------

Responder
Thanks given by:
#2
gracias excelente aporte descargando
Responder
Thanks given by:


Posibles temas similares...
Tema Autor Respuestas Vistas Último mensaje
Video Jason Bourne HD1080p Lat-Cast-Ing 5.1 (2016) dvdriplat 0 11 7 horas
Último mensaje: dvdriplat
Video Jason Bourne HD720p Lat-Cast-Ing 5.1 (2016) dvdriplat 0 9 7 horas
Último mensaje: dvdriplat
Video Fantastic Beasts and Where to Find Them [2016][3D H-SBS 1080p][Ing-Lat] profito 0 8 11 horas
Último mensaje: profito
  El halcón maltés [1941] [HDRIP] [DUAL ES IN] ][Cine Negro] Blade Master 666 0 4 Hoy, 12:58 AM
Último mensaje: Blade Master 666



Usuarios navegando en este tema: 1 invitado(s)

Powered By MyBB, © 2002-2017 MyBB Group.