Calificación:
  • 0 voto(s) - 0 Media
  • 1
  • 2
  • 3
  • 4
  • 5

[-]
Etiquetas
está link fd aventuras 2013 cuando castellano 1 todo dvdrip perdido

Cuando todo está perdido (2013) [DVDRip/Castellano] [Aventuras] [1 Link] [FD]

#1
Video 

Sinopsis / Synopsis:
Un día, durante un viaje en solitario a través del Océano Índico, un hombre (Robert Redford) descubre al despertar que el casco de su velero de 12 metros se ha agrietado tras una colisión con un contenedor que flotaba a la deriva. A pesar de las reparaciones, de su experiencia marinera y de una fuerza física que desafía su edad, a duras penas logra sobrevivir a la tormenta. Pero el sol implacable, la amenaza de los tiburones y el agotamiento de sus escasas reservas lo obligan a mirar a la muerte a los ojos.

Ficha Técnica / Technical details:
Título original: All Is Lost
Título : Cuando todo está perdido
Año: 2013
Duración: 106 min.
País: Estados Unidos
Director: J.C. Chandor
Guión: J.C. Chandor
Música: Alex Ebert
Fotografía: Frank G. DeMarco
Reparto: Robert Redford
Productora: Lionsgate Films / Roadshow Attractions / Before The Door Pictures / Washington Square Films / Black Bear Pictures
Género: Aventuras. Drama | Aventuras marinas. Supervivencia. Vela

Trailer:




Datos Técnicos / Technical Data:
DVDRip | AVI | 1.06 GB | 672x280 | Castellano

Capturas /
Screenshots:


Mediainfo:
Código:
General
Complete name                            : Cuando todo esta perdido.DVDRip.Castellano-By tomas01.avi
Format                                   : AVI
Format/Info                              : Audio Video Interleave
File size                                : 1.06 GiB
Duration                                 : 1h 45mn
Overall bit rate                         : 1 437 Kbps
Writing application                      : VirtualDubMod 1.5.10.2 (build 2540/release)
Writing library                          : VirtualDubMod build 2540/release

Video
ID                                       : 0
Format                                   : MPEG-4 Visual
Format profile                           : Advanced Simple@L5
Format settings, BVOP                    : 1
Format settings, QPel                    : No
Format settings, GMC                     : No warppoints
Format settings, Matrix                  : Custom
Codec ID                                 : XVID
Codec ID/Hint                            : XviD
Duration                                 : 1h 45mn
Bit rate                                 : 788 Kbps
Width                                    : 672 pixels
Height                                   : 280 pixels
Display aspect ratio                     : 2.40:1
Frame rate                               : 23.976 fps
Color space                              : YUV
Chroma subsampling                       : 4:2:0
Bit depth                                : 8 bits
Scan type                                : Progressive
Compression mode                         : Lossy
Bits/(Pixel*Frame)                       : 0.175
Stream size                              : 596 MiB (55%)
Writing library                          : XviD 1.2.1 (UTC 2008-12-04)

Audio
ID                                       : 1
Format                                   : AC-3
Format/Info                              : Audio Coding 3
Mode extension                           : CM (complete main)
Codec ID                                 : 2000
Duration                                 : 1h 45mn
Bit rate mode                            : Constant
Bit rate                                 : 640 Kbps
Channel(s)                               : 6 channels
Channel positions                        : Front: L C R, Side: L R, LFE
Sampling rate                            : 48.0 KHz
Bit depth                                : 16 bits
Compression mode                         : Lossy
Delay relative to video                  : 400ms
Stream size                              : 484 MiB (45%)
Alignment                                : Split accross interleaves
Interleave, duration                     : 42 ms (1.00 video frame)
Interleave, preload duration             : 500 ms


Contraseña / Password:
Código:
tomas01


Descargar Gratis / Download Free:


FreakShare | FileOm | FireDriver(PutLocker)

Código:
http://goo.gl/Tt6UNN

Notas de aclaración:
----------------------------------------------------------------------------------------------------
Esto es para que quede en claro, mis pelis se escuchan porque yo las oigo en mi PC, si tienes problemas con el sonido o video entra al contenedor de links hay le tengo solución.
Si vas a reportar links rotos lo puedes hacer por MP o por el reporte de links ''esta junto en los links'' revisa los links si lo he resubido, no lo comento por el tiempo.


----------------------------------------------------------------------------------------------------

Responder
Thanks given by:


Posibles temas similares...
Tema Autor Respuestas Vistas Último mensaje
Video Ultravioleta HD1080p Lat-Cast-Ing 5.1 (2006) dvdriplat 0 5 8 horas
Último mensaje: dvdriplat
Video Ultravioleta HD720p Lat-Cast-Ing 5.1 (2006) dvdriplat 0 4 9 horas
Último mensaje: dvdriplat
Video El Regreso De La Mosca HD1080p Lat-Cast-Ing 2.0 (1959) dvdriplat 0 7 Hoy, 05:13 AM
Último mensaje: dvdriplat
Video El Regreso De La Mosca HD720p Lat-Cast-Ing 2.0 (1959) dvdriplat 0 6 Hoy, 05:05 AM
Último mensaje: dvdriplat



Usuarios navegando en este tema: 1 invitado(s)

Powered By MyBB, © 2002-2017 MyBB Group.