Calificación:
  • 0 voto(s) - 0 Media
  • 1
  • 2
  • 3
  • 4
  • 5

[-]
Etiquetas
pl link house 720phd terror subtitulada dark 1 2014

Dark House (2014) [720pHD/Subtitulada] [Terror] [1 Link] [PL]

#1
Video 

Sinopsis / Synopsis:
Nick Di Santo vive atormentado por su habilidad de tocar a alguien y ver exactamente como morirá. En su 23º cumpleaños, Nick es convocado por su madre en el manicomio donde fue ingresado desde su niñez. Esperando que su petición para verle sea una mejora, Nick deberá asumir la increíble revelación de que su padre que suponía muerto está vivo. Él podría conocer el origen del terrible don de Nick...

Ficha Técnica / Technical details:
Título original: Dark House (Haunted)
Año: 2014
Duración: 102 min.
País: Estados Unidos
Director: Victor Salva
Guión: Victor Salva, Charles Agron
Música: Mark Chait
Fotografía: Don E. Faunt LeRoy
Reparto: Tobin Bell, Luke Kleintank, Alex McKenna, Lesley-Anne Down, Zack Ward, Patricia Belcher, Anthony Rey Perez, Max Gail, Ethan S. Smith, Amye Gousset
Productora: Greenway Entertainment
Género: Thriller. Terror | Sobrenatural

Trailer:




Datos Técnicos / Technical Data:
720pHD | AVI | 1.88 GB | 1280x720 | Sub Español

Capturas / Screenshots:


Mediainfo:
Código:
General
Complete name                            : Dark.House.720p.VOSE(peliculastomas01).avi
Format                                   : AVI
Format/Info                              : Audio Video Interleave
Format profile                           : OpenDML
File size                                : 1.88 GiB
Duration                                 : 1h 42mn
Overall bit rate                         : 2 621 Kbps
Writing application                      : Lavf52.84.0

Video
ID                                       : 0
Format                                   : MPEG-4 Visual
Format profile                           : Simple@L1
Format settings, BVOP                    : No
Format settings, QPel                    : No
Format settings, GMC                     : No warppoints
Format settings, Matrix                  : Default (H.263)
Codec ID                                 : XVID
Codec ID/Hint                            : XviD
Duration                                 : 1h 42mn
Bit rate                                 : 2 479 Kbps
Width                                    : 1 280 pixels
Height                                   : 720 pixels
Display aspect ratio                     : 16:9
Frame rate                               : 29.970 fps
Color space                              : YUV
Chroma subsampling                       : 4:2:0
Bit depth                                : 8 bits
Scan type                                : Progressive
Compression mode                         : Lossy
Bits/(Pixel*Frame)                       : 0.090
Stream size                              : 1.78 GiB (95%)
Writing library                          : Lavc52.97.0

Audio
ID                                       : 1
Format                                   : MPEG Audio
Format version                           : Version 1
Format profile                           : Layer 3
Mode                                     : Joint stereo
Mode extension                           : MS Stereo
Codec ID                                 : 55
Codec ID/Hint                            : MP3
Duration                                 : 1h 42mn
Bit rate mode                            : Constant
Bit rate                                 : 128 Kbps
Channel(s)                               : 2 channels
Sampling rate                            : 48.0 KHz
Compression mode                         : Lossy
Stream size                              : 93.9 MiB (5%)
Alignment                                : Aligned on interleaves
Interleave, duration                     : 24 ms (0.72 video frame)
Interleave, preload duration             : 24 ms
Writing library                          : LAME3.98.4

Contraseña / Password:
Código:
peliculastomas01

Descargar Gratis / Download Free:

FreakShare | uploadable | FireDriver(PutLocker)

Código:
http://goo.gl/399uxi

Notas:
----------------------------------------------------------------------------------------------------
-Si tienes problemas con el sonido reportamelo por MP, Ya le tengo solucion.
-Si algun enlace o link se cae, no lo avises comentando, hazlo por MP o por el reporte de links, asi me doy cuenta rapido.
-Verifica si he resubido los links aveces no lo comento en el foro, solo lo digo por el contenedor de links.
-Por favor, les pido que comenten sobre la calidad o sonido de la peli, asi los demas sabran lo que descargan.


----------------------------------------------------------------------------------------------------

Responder
Thanks given by:


Posibles temas similares...
Tema Autor Respuestas Vistas Último mensaje
  El velo pintado [1934] [DVDRip] [DUAL ES IN] [Romance Drama] Blade Master 666 0 9 10 horas
Último mensaje: Blade Master 666
  Moby Dick [1956] [HDRIP] [DUAL ES IN] [Aventuras Drama] Blade Master 666 0 7 10 horas
Último mensaje: Blade Master 666
Video Hotel Transylvania 2 [2015][3D H-SBS 1080p][Ing-Lat] profito 0 8 Ayer, 10:12 PM
Último mensaje: profito
Video Hotel Transylvania [2012][3D H-SBS 1080p][Ing-Lat] profito 0 8 Ayer, 10:03 PM
Último mensaje: profito



Usuarios navegando en este tema: 1 invitado(s)

Powered By MyBB, © 2002-2017 MyBB Group.