Calificación:
  • 0 voto(s) - 0 Media
  • 1
  • 2
  • 3
  • 4
  • 5

[-]
Etiquetas
divergent hq pl link ts ciencia subtitulada 1 ficción 2014 screener

Divergent (2014) [TS Screener HQ/Subtitulada] [Ciencia ficción] [1 Link] [PL]

#1
Video 


Sinopsis:
En el Chicago distópico de Beatrice Prior, la sociedad está dividida en cinco facciones, cada una de ellas dedicada a cultivar una virtud concreta: Verdad (los sinceros), Abnegación (los altruistas), Osadía (los valientes), Cordialidad (los pacíficos) y Erudición (los inteligentes). En una ceremonia anual, todos los chicos de dieciséis años deben decidir a qué facción dedicarán el resto de sus vidas. Beatrice tiene que elegir entre quedarse con su familia… y ser quien realmente es, no puede tener ambas cosas. Así que toma una decisión que sorprenderá a todo el mundo, incluida ella. Durante el competitivo proceso de iniciación posterior, Beatrice decide pasar a llamarse Tris e intenta averiguar quiénes son sus verdaderos amigos, y dónde encaja en su vida enamorarse de un chico que unas veces resulta fascinante y otras veces la exaspera. Sin embargo, Tris también tiene un secreto, un secreto que no ha contado a nadie para no poner su vida en peligro. Cuando descubre un conflicto que amenaza con desbaratar la, en apariencia, perfecta sociedad en la que vive, también averigua que su secreto podría ser la clave para salvar a los que ama o… para acabar muerta.

Ficha Técnica:
Título original: Divergent
Otros Títulos : Divergente
Año: 2014
Duración: 139 min.
País: Estados Unidos
Director: Neil Burger
Guión: Evan Daugherty, Vanessa Taylor (Libro: Veronica Roth)
Música: Junkie XL
Fotografía: Alwin H. Küchler
Reparto: Shailene Woodley, Theo James, Kate Winslet, Tony Goldwyn, Ray Stevenson, Maggie Q, Mekhi Phifer, Jai Courtney, Miles Teller, Zoë Kravitz
Productora: Summit Entertainment / Red Wagon Entertainment
Género: Ciencia ficción. Acción. Aventuras
Estreno en USA: 21/03/2014
Estreno en España: 30/04/2014

Trailer:




Mira los primeros 3 minutos de la pelicula, antes de descargarla:
Código:
http://played.to/9biy8c61rfr7

Datos Técnicos:
TS Screener HQ | AVI | 1.71 GB | 720x314 | Sub Español

Capturas:


Mediainfo:
Código:
General
Complete name                            : Divergent.TSHQ.VOSE(peliculastomas01).avi
Format                                   : AVI
Format/Info                              : Audio Video Interleave
Format profile                           : OpenDML
File size                                : 1.71 GiB
Duration                                 : 2h 11mn
Overall bit rate                         : 1 857 Kbps
Writing application                      : Lavf53.32.100

Video
ID                                       : 0
Format                                   : MPEG-4 Visual
Format profile                           : Advanced Simple@L5
Format settings, BVOP                    : 2
Format settings, QPel                    : No
Format settings, GMC                     : No warppoints
Format settings, Matrix                  : Default (H.263)
Muxing mode                              : Packed bitstream
Codec ID                                 : XVID
Codec ID/Hint                            : XviD
Duration                                 : 2h 11mn
Bit rate                                 : 1 524 Kbps
Width                                    : 720 pixels
Height                                   : 314 pixels
Display aspect ratio                     : 2.25:1
Frame rate                               : 23.976 fps
Color space                              : YUV
Chroma subsampling                       : 4:2:0
Bit depth                                : 8 bits
Scan type                                : Progressive
Compression mode                         : Lossy
Bits/(Pixel*Frame)                       : 0.281
Stream size                              : 1.40 GiB (82%)
Writing library                          : XviD 64

Audio
ID                                       : 1
Format                                   : MPEG Audio
Format version                           : Version 1
Format profile                           : Layer 3
Mode                                     : Joint stereo
Codec ID                                 : 55
Codec ID/Hint                            : MP3
Duration                                 : 2h 11mn
Bit rate mode                            : Constant
Bit rate                                 : 320 Kbps
Channel(s)                               : 2 channels
Sampling rate                            : 48.0 KHz
Compression mode                         : Lossy
Stream size                              : 301 MiB (17%)
Alignment                                : Aligned on interleaves
Interleave, duration                     : 24 ms (0.58 video frame)
Writing library                          : LAME3.99.5


Contraseña / Password:
Código:
peliculastomas01


Descargar / Download:


FreakShare | uploadable | FireDriver(PutLocker)

Código:
http://goo.gl/wjrGSr

Notas:
----------------------------------------------------------------------------------------------------
-Si tienes problemas con el sonido reportamelo por MP, Ya le tengo solucion.
-Si algun enlace o link se cae, no lo avises comentando, hazlo por MP o por el reporte de links, asi me doy cuenta rapido.
-Verifica si he resubido los links aveces no lo comento en el foro, solo lo digo por el contenedor de links.
-Por favor, les pido que comenten sobre la calidad o sonido de la peli, asi los demas sabran lo que descargan.


----------------------------------------------------------------------------------------------------

Responder
Thanks given by:


Posibles temas similares...
Tema Autor Respuestas Vistas Último mensaje
  El lazarillo de Tormes (Sin censura) [1959] [DVBRIP] [Castellano] [Drama Comedia] Blade Master 666 0 4 1 hora
Último mensaje: Blade Master 666
  Siete ladrones [1960] [DVDRip] [DUAL ES IN] [Drama Robos Atracos] Blade Master 666 0 4 2 horas
Último mensaje: Blade Master 666
Video The Hobbit An Unexpected Journey [2012][3D H-SBS 1080p][Ing-Lat] profito 0 3 3 horas
Último mensaje: profito
  La autopsia de Jane Doe (2016)(HDRip)(Ingles/Subtitulada)(Terror)(BDupload) kz8307 0 4 4 horas
Último mensaje: kz8307



Usuarios navegando en este tema: 1 invitado(s)

Powered By MyBB, © 2002-2017 MyBB Group.