Calificación:
  • 0 voto(s) - 0 Media
  • 1
  • 2
  • 3
  • 4
  • 5

[-]
Etiquetas
latino accion chi link 720phd fd el maestro 2013 tai 1 del

El Maestro del Tai Chi (2013) [720pHD/Latino] [Accion] [1 Link] [FD]

#1
Video 

Sinopsis / Synopsis:
Gira en torno a "un joven artista de las artes marciales cuyas habilidades de combate le abren las puertas a un reino de vastas oportunidades pero dolorosas elecciones".

Ficha Técnica / Technical details:
Título original: Man of Tai Chi
Título: El Maestro del Tai Chi
Año: 2013
Duración: 105 min.
País:Estados Unidos
Director: Keanu Reeves
Guión: Michael G. Cooney
Música: Chan Kwong-wing
Fotografía: Elliot Davis
Reparto: Keanu Reeves, Jeremy Marinas, Karen Mok, Iko Uwais, Brahim Achabbakhe, Tiger Hu Chen
Productora: Coproducción EEUU-China; China Film Group / Dalian Wanda Group / Village Roadshow Pictures
Género: Acción | Artes marciales

Trailer:




Datos Técnicos / Technical Data:
720pHD | MKV | 1.02 GB | 1280x528 | Español Latino

Capturas / Screenshots:


Mediainfo:
Código:
General
Unique ID                                : 243621165623247836110725689694117982286 (0xB747BAD3E9B0C0D6AF5B1F37B188704E)
Complete name                            : El Maestro del Tai Chi.720p.Latino(peliculastomas01).mkv
Format                                   : Matroska
Format version                           : Version 2
File size                                : 1.02 GiB
Duration                                 : 1h 45mn
Overall bit rate                         : 1 385 Kbps
Encoded date                             : UTC 2014-04-06 17:57:18
Writing application                      : mkvmerge v3.4.0 ('Rapunzel') built on May 15 2010 09:38:20
Writing library                          : libebml v0.8.0 + libmatroska v0.9.0

Video
ID                                       : 1
Format                                   : AVC
Format/Info                              : Advanced Video Codec
Format profile                           : High@L4.1
Format settings, CABAC                   : Yes
Format settings, ReFrames                : 6 frames
Codec ID                                 : V_MPEG4/ISO/AVC
Duration                                 : 1h 45mn
Bit rate                                 : 1 000 Kbps
Width                                    : 1 280 pixels
Height                                   : 528 pixels
Display aspect ratio                     : 2.40:1
Frame rate                               : 23.976 fps
Color space                              : YUV
Chroma subsampling                       : 4:2:0
Bit depth                                : 8 bits
Scan type                                : Progressive
Bits/(Pixel*Frame)                       : 0.062
Stream size                              : 733 MiB (70%)
Writing library                          : x264 core 138 r2358 9e941d1
Encoding settings                        : cabac=1 / ref=6 / deblock=1:1:1 / analyse=0x3:0x113 / me=hex / subme=7 / psy=1 / psy_rd=0.40:0.00 / mixed_ref=1 / me_range=16 / chroma_me=1 / trellis=1 / 8x8dct=1 / cqm=0 / deadzone=21,11 / fast_pskip=1 / chroma_qp_offset=-2 / threads=18 / lookahead_threads=3 / sliced_threads=0 / nr=0 / decimate=1 / interlaced=0 / bluray_compat=0 / constrained_intra=0 / bframes=4 / b_pyramid=2 / b_adapt=1 / b_bias=0 / direct=1 / weightb=0 / open_gop=0 / weightp=2 / keyint=250 / keyint_min=23 / scenecut=40 / intra_refresh=0 / rc_lookahead=40 / rc=2pass / mbtree=1 / bitrate=1000 / ratetol=1.0 / qcomp=0.60 / qpmin=0 / qpmax=69 / qpstep=4 / cplxblur=20.0 / qblur=0.5 / ip_ratio=1.40 / aq=1:0.60
Language                                 : Spanish
Default                                  : No
Forced                                   : No

Audio
ID                                       : 2
Format                                   : AC-3
Format/Info                              : Audio Coding 3
Mode extension                           : CM (complete main)
Codec ID                                 : A_AC3
Duration                                 : 1h 45mn
Bit rate mode                            : Constant
Bit rate                                 : 384 Kbps
Channel(s)                               : 6 channels
Channel positions                        : Front: L C R, Side: L R, LFE
Sampling rate                            : 48.0 KHz
Bit depth                                : 16 bits
Compression mode                         : Lossy
Delay relative to video                  : 6s 0ms
Stream size                              : 289 MiB (28%)
Language                                 : Spanish
Default                                  : Yes
Forced                                   : No

Text
ID                                       : 3
Format                                   : UTF-8
Codec ID                                 : S_TEXT/UTF8
Codec ID/Info                            : UTF-8 Plain Text
Language                                 : Spanish
Default                                  : Yes
Forced                                   : No


Contraseña / Password:
Código:
peliculastomas01


Descargar Gratis / Download Free:


FreakShare | uploadable | FireDriver(PutLocker)

Código:
http://goo.gl/cYw7nV

Notas:
----------------------------------------------------------------------------------------------------
-Si tienes problemas con el sonido reportamelo por MP, Ya le tengo solucion.
-Si algun enlace o link se cae, no lo avises comentando, hazlo por MP o por el reporte de links, asi me doy cuenta rapido.
-Verifica si he resubido los links aveces no lo comento en el foro, solo lo digo por el contenedor de links.
-Por favor, les pido que comenten sobre la calidad o sonido de la peli, asi los demas sabran lo que descargan.

----------------------------------------------------------------------------------------------------

Responder
Thanks given by:


Posibles temas similares...
Tema Autor Respuestas Vistas Último mensaje
  El lazarillo de Tormes (Sin censura) [1959] [DVBRIP] [Castellano] [Drama Comedia] Blade Master 666 0 4 2 horas
Último mensaje: Blade Master 666
  Siete ladrones [1960] [DVDRip] [DUAL ES IN] [Drama Robos Atracos] Blade Master 666 0 4 2 horas
Último mensaje: Blade Master 666
Video The Hobbit An Unexpected Journey [2012][3D H-SBS 1080p][Ing-Lat] profito 0 3 3 horas
Último mensaje: profito
  La autopsia de Jane Doe (2016)(HDRip)(Ingles/Subtitulada)(Terror)(BDupload) kz8307 0 4 4 horas
Último mensaje: kz8307



Usuarios navegando en este tema: 1 invitado(s)

Powered By MyBB, © 2002-2017 MyBB Group.