Calificación:
  • 0 voto(s) - 0 Media
  • 1
  • 2
  • 3
  • 4
  • 5

[-]
Etiquetas
latino accion chi link fd el maestro 2013 tai 1 del dvdrip

El Maestro del Tai Chi (2013) [DVDRip/Latino] [Accion] [1 Link] [FD]

#1
Video 

Sinopsis / Synopsis:
Gira en torno a "un joven artista de las artes marciales cuyas habilidades de combate le abren las puertas a un reino de vastas oportunidades pero dolorosas elecciones".

Ficha Técnica / Technical details:
Título original: Man of Tai Chi
Título: El Maestro del Tai Chi
Año: 2013
Duración: 105 min.
País:Estados Unidos
Director: Keanu Reeves
Guión: Michael G. Cooney
Música: Chan Kwong-wing
Fotografía: Elliot Davis
Reparto: Keanu Reeves, Jeremy Marinas, Karen Mok, Iko Uwais, Brahim Achabbakhe, Tiger Hu Chen
Productora: Coproducción EEUU-China; China Film Group / Dalian Wanda Group / Village Roadshow Pictures
Género: Acción | Artes marciales

Trailer:




Datos Técnicos / Technical Data:
DVDRip | AVI | 700 MB | 640x272 | Español Latino

Capturas / Screenshots:


Mediainfo:
Código:
General
Complete name                            : El Maestro del Tai Chi.DVDRip.Latino(peliculastomas01).avi
Format                                   : AVI
Format/Info                              : Audio Video Interleave
File size                                : 700 MiB
Duration                                 : 1h 45mn
Overall bit rate                         : 930 Kbps
Recorded date                            : 31-03-2014
Writing application                      : VirtualDubMod 1.5.10.2 (build 2540/release) VirtualDubMod build 2540/release

Video
ID                                       : 0
Format                                   : MPEG-4 Visual
Format profile                           : Advanced Simple@L5
Format settings, BVOP                    : 2
Format settings, QPel                    : No
Format settings, GMC                     : No warppoints
Format settings, Matrix                  : Default (H.263)
Codec ID                                 : XVID
Codec ID/Hint                            : XviD
Duration                                 : 1h 45mn
Bit rate                                 : 809 Kbps
Width                                    : 640 pixels
Height                                   : 272 pixels
Display aspect ratio                     : 2.35:1
Frame rate                               : 23.976 fps
Color space                              : YUV
Chroma subsampling                       : 4:2:0
Bit depth                                : 8 bits
Scan type                                : Progressive
Compression mode                         : Lossy
Bits/(Pixel*Frame)                       : 0.194
Stream size                              : 609 MiB (87%)
Writing library                          : XviD 1.2.1 (UTC 2008-12-04)

Audio
ID                                       : 1
Format                                   : MPEG Audio
Format version                           : Version 1
Format profile                           : Layer 3
Mode                                     : Joint stereo
Codec ID                                 : 55
Codec ID/Hint                            : MP3
Duration                                 : 1h 45mn
Bit rate mode                            : Constant
Bit rate                                 : 112 Kbps
Channel(s)                               : 2 channels
Sampling rate                            : 44.1 KHz
Compression mode                         : Lossy
Delay relative to video                  : 6s 0ms
Stream size                              : 84.3 MiB (12%)
Alignment                                : Split accross interleaves
Interleave, duration                     : 42 ms (1.00 video frame)
Interleave, preload duration             : 500 ms
Writing library                          : LAME3.98.2
Language                                 : un


Contraseña / Password:
Código:
peliculastomas01


Descargar Gratis / Download Free:


FreakShare | uploadable | FireDriver(PutLocker)

Código:
http://goo.gl/hlrIW8

Notas:
----------------------------------------------------------------------------------------------------
-Si tienes problemas con el sonido reportamelo por MP, Ya le tengo solucion.
-Si algun enlace o link se cae, no lo avises comentando, hazlo por MP o por el reporte de links, asi me doy cuenta rapido.
-Verifica si he resubido los links aveces no lo comento en el foro, solo lo digo por el contenedor de links.
-Por favor, les pido que comenten sobre la calidad o sonido de la peli, asi los demas sabran lo que descargan.

----------------------------------------------------------------------------------------------------

Responder
Thanks given by:


Posibles temas similares...
Tema Autor Respuestas Vistas Último mensaje
  Las ratas del desierto [1953] [DVDRip] [Castellano] [Bélico IIGM] Blade Master 666 0 27 04-28-2017, 03:24 AM
Último mensaje: Blade Master 666
  Infierno en la bahía de San Francisco [1955] [DVDRip] [DUAL ES IN] [Thriller Drama] Blade Master 666 0 13 04-28-2017, 03:21 AM
Último mensaje: Blade Master 666
Video Turbo [2013][3D H-SBS 1080p][Ing-Lat] profito 0 8 04-28-2017, 02:45 AM
Último mensaje: profito
Video The Lion King III [2004][FullHD 1080][Ing-Lat] profito 0 5 04-27-2017, 11:28 PM
Último mensaje: profito



Usuarios navegando en este tema: 1 invitado(s)

Powered By MyBB, © 2002-2017 MyBB Group.