Calificación:
  • 0 voto(s) - 0 Media
  • 1
  • 2
  • 3
  • 4
  • 5

[-]
Etiquetas
link fd médico el 2013 castellano 1 aventura dvdrip

El médico (2013) [DVDRip/Castellano] [Aventura] [1 Link] [FD]

#1
Video 

Sinopsis / Synopsis:
Rob J. Cole, un niño huérfano de nueve años es adoptado por un barbero que le enseña el oficio. Durante años recorren Inglaterra montando espectáculos para atraer al público hasta que su padre adoptivo también muere. Rob seguirá en solitario y conocerá a Benjamin Merlin, un médico judío al que pronto admirará y quien le descubrirá a su mentor, el científico persa Ibn Sina. Rob, determinado a convertirse en un gran médico, iniciará un emocionante viaje hacia Persia, donde se hará pasar por judío para poder estudiar en una escuela que no admite cristianos.

Ficha Técnica / Technical details:
Título original: Der Medicus (The Physician)
Título : El médico
Año: 2013
Duración: 150 min.
País: Alemania
Director: Philipp Stölzl
Guión: Jan Berger (Novela: Noah Gordon)
Música: Ingo Frenzel
Fotografía: Hagen Bogdanski
Reparto: Tom Payne, Stellan Skarsgård, Olivier Martinez, Emma Rigby, Ben Kingsley, Michael Jibson, Elyas M'Barek, Makram Khoury, Dominique Moore, Fahri Yardim
Productora: UFA Cinema / ARD Degeto Film / Beta Cinema
Género: Aventuras. Drama | Siglo XI. Edad Media. Medicina. Religión. Cine épico

Trailer:




Datos Técnicos / Technical Data:
DVDRip | AVI | 1.73 GB | 720x304 | Castellano

Capturas /
Screenshots:


Mediainfo:
Código:
General
Complete name                            : El medico.DVDRip.Castellano-By tomas01.avi
Format                                   : AVI
Format/Info                              : Audio Video Interleave
File size                                : 1.73 GiB
Duration                                 : 2h 34mn
Overall bit rate                         : 1 596 Kbps
Writing application                      : VirtualDubMod 1.5.10.2 (build 2542/release)
Writing library                          : VirtualDubMod build 2542/release

Video
ID                                       : 0
Format                                   : MPEG-4 Visual
Format profile                           : Advanced Simple@L5
Format settings, BVOP                    : 1
Format settings, QPel                    : No
Format settings, GMC                     : No warppoints
Format settings, Matrix                  : Custom
Codec ID                                 : XVID
Codec ID/Hint                            : XviD
Duration                                 : 2h 34mn
Bit rate                                 : 1 139 Kbps
Width                                    : 720 pixels
Height                                   : 304 pixels
Display aspect ratio                     : 2.35:1
Frame rate                               : 24.000 fps
Color space                              : YUV
Chroma subsampling                       : 4:2:0
Bit depth                                : 8 bits
Scan type                                : Progressive
Compression mode                         : Lossy
Bits/(Pixel*Frame)                       : 0.217
Stream size                              : 1.23 GiB (71%)
Writing library                          : XviD 1.2.1 (UTC 2008-12-04)

Audio
ID                                       : 1
Format                                   : AC-3
Format/Info                              : Audio Coding 3
Mode extension                           : CM (complete main)
Codec ID                                 : 2000
Duration                                 : 2h 34mn
Bit rate mode                            : Constant
Bit rate                                 : 448 Kbps
Channel(s)                               : 6 channels
Channel positions                        : Front: L C R, Side: L R, LFE
Sampling rate                            : 48.0 KHz
Bit depth                                : 16 bits
Compression mode                         : Lossy
Stream size                              : 496 MiB (28%)
Alignment                                : Split accross interleaves
Interleave, duration                     : 42 ms (1.00 video frame)
Interleave, preload duration             : 500 ms


Contraseña / Password:
Código:
tomas01


Descargar Gratis / Download Free:


FreakShare | FileOm | FireDriver(PutLocker)

Código:
http://goo.gl/0Qz4ZS

Notas de aclaración:
----------------------------------------------------------------------------------------------------
Esto es para que quede en claro, mis pelis se escuchan porque yo las oigo en mi PC, si tienes problemas con el sonido o video entra al contenedor de links hay le tengo solución.
Si vas a reportar links rotos lo puedes hacer por MP o por el reporte de links ''esta junto en los links'' revisa los links si lo he resubido, no lo comento por el tiempo.


----------------------------------------------------------------------------------------------------

Responder
Thanks given by:


Posibles temas similares...
Tema Autor Respuestas Vistas Último mensaje
Video Jason Bourne HD1080p Lat-Cast-Ing 5.1 (2016) dvdriplat 0 11 7 horas
Último mensaje: dvdriplat
Video Jason Bourne HD720p Lat-Cast-Ing 5.1 (2016) dvdriplat 0 9 7 horas
Último mensaje: dvdriplat
Video Fantastic Beasts and Where to Find Them [2016][3D H-SBS 1080p][Ing-Lat] profito 0 8 11 horas
Último mensaje: profito
  El halcón maltés [1941] [HDRIP] [DUAL ES IN] ][Cine Negro] Blade Master 666 0 4 Hoy, 12:58 AM
Último mensaje: Blade Master 666



Usuarios navegando en este tema: 1 invitado(s)

Powered By MyBB, © 2002-2017 MyBB Group.