Calificación:
  • 0 voto(s) - 0 Media
  • 1
  • 2
  • 3
  • 4
  • 5

[-]
Etiquetas
accion chi link 720phd fd el poder 2013 tai castellano 1 del

El poder del Tai Chi (2013) [720pHD/Castellano] [Accion] [1 Link] [FD]

#1
Video 

Sinopsis / Synopsis:
El ambicioso y joven "Tigre", Chen Lin-Hu (Tiger Chen) trabaja de repartidor en la ajetreada ciudad de Pekín, pero cuando acaba la jornada laboral se convierte en una estrella de las artes marciales que ha ascendido por los diferentes niveles en representación del tradicional Tai Chi Ling Kong. El Tai Chi suele asociarse con movimientos tranquilos y comedidos. Tigre ha perfeccionado el antiguo arte y ha empezado a hacerse un nombre en el prestigioso campeonato de artes marciales Wulin Wang.

En Hong Kong, la detective Suen Jing-Si (Karen Mok), que forma parte del OCTB (Unidad contra el crimen organizado), ha llegado a un callejón sin salida persiguiendo a Donaka Mark (Keanu Reeves). Donaka es un poderoso hombre de negocios residente en Hong Kong que organiza peleas clandestinas sin reglas y retransmitidas de forma privada a apostantes ricos. Donaka necesita a una nueva estrella e intenta atraer a Tigre a sus redes con dinero.

Al principio, Tigre no se deja tentar, ya que está totalmente entregado a la pureza e integridad de su objetivo, pero cuando el templo donde practica se ve amenazado de destrucción por una inmobiliaria, decide probar suerte con la esperanza de poder salvar el legado de Tai Chi Ling Kong. Tigre no tarda en convertirse en la sensación de las peleas clandestinas, derrotando a sus oponentes con golpes letales. Pero poco a poco empieza a emerger su lado oscuro. La agresividad de Tigre durante el torneo Wulin Wang llama la atención de muchos y avergüenza a su viejo maestro (Yu Hai).

Aparentemente incapaz de controlarse, Tigre acaba colaborando con la detective Jing-Si para pillar a Donaka organizando combates clandestinos. Pero arriesga su vida en cada pelea. ¿Podrá Tigre cumplir con su objetivo y dominar su lado más oscuro?

Ficha Técnica / Technical details:
Título original: Man of Tai Chi
Título: El poder del Tai Chi
Año: 2013
Duración: 105 min.
País:Estados Unidos
Director: Keanu Reeves
Guión: Michael G. Cooney
Música: Chan Kwong-wing
Fotografía: Elliot Davis
Reparto: Keanu Reeves, Jeremy Marinas, Karen Mok, Iko Uwais, Brahim Achabbakhe, Tiger Hu Chen
Productora: Coproducción EEUU-China; China Film Group / Dalian Wanda Group / Village Roadshow Pictures
Género: Acción | Artes marciales

Trailer:




Datos Técnicos / Technical Data:
720pHD | MKV | 2.68 GB | 1280x536 | Castellano

Capturas / Screenshots:


Mediainfo:
Código:
General
Unique ID                                : 208819239228178497821307218255268167666 (0x9D191F615C95EA72A5260FD5781A3FF2)
Complete name                            : El poder del Tai Chi.720p.Castellano(peliculastomas01).mkv
Format                                   : Matroska
Format version                           : Version 4 / Version 2
File size                                : 2.68 GiB
Duration                                 : 1h 45mn
Overall bit rate                         : 3 648 Kbps
Encoded date                             : UTC 2014-04-12 02:03:56
Writing application                      : mkvmerge v6.5.0 ('Isn't she lovely') built on Oct 20 2013 12:50:05
Writing library                          : libebml v1.3.0 + libmatroska v1.4.1

Video
ID                                       : 1
Format                                   : AVC
Format/Info                              : Advanced Video Codec
Format profile                           : High@L4.1
Format settings, CABAC                   : Yes
Format settings, ReFrames                : 5 frames
Codec ID                                 : V_MPEG4/ISO/AVC
Duration                                 : 1h 45mn
Bit rate                                 : 2 750 Kbps
Width                                    : 1 280 pixels
Height                                   : 536 pixels
Display aspect ratio                     : 2.40:1
Frame rate                               : 23.976 fps
Color space                              : YUV
Chroma subsampling                       : 4:2:0
Bit depth                                : 8 bits
Scan type                                : Progressive
Bits/(Pixel*Frame)                       : 0.167
Stream size                              : 1.97 GiB (73%)
Writing library                          : x264 core 133 r2334 a3ac64b
Encoding settings                        : cabac=1 / ref=5 / deblock=1:-1:-1 / analyse=0x3:0x113 / me=umh / subme=6 / psy=1 / psy_rd=1.00:0.00 / mixed_ref=1 / me_range=20 / chroma_me=1 / trellis=1 / 8x8dct=1 / cqm=2 / deadzone=21,11 / fast_pskip=0 / chroma_qp_offset=-2 / threads=3 / lookahead_threads=1 / sliced_threads=0 / nr=0 / decimate=0 / interlaced=0 / bluray_compat=0 / constrained_intra=0 / bframes=5 / b_pyramid=2 / b_adapt=2 / b_bias=0 / direct=3 / weightb=1 / open_gop=0 / weightp=2 / keyint=240 / keyint_min=23 / scenecut=40 / intra_refresh=0 / rc_lookahead=50 / rc=2pass / mbtree=1 / bitrate=2750 / ratetol=1.0 / qcomp=0.60 / qpmin=1 / qpmax=63 / qpstep=4 / cplxblur=20.0 / qblur=0.5 / vbv_maxrate=62500 / vbv_bufsize=78125 / nal_hrd=none / ip_ratio=1.40 / aq=1:1.00
Language                                 : Spanish
Default                                  : Yes
Forced                                   : No

Audio #1
ID                                       : 2
Format                                   : AC-3
Format/Info                              : Audio Coding 3
Mode extension                           : CM (complete main)
Codec ID                                 : A_AC3
Duration                                 : 1h 45mn
Bit rate mode                            : Constant
Bit rate                                 : 448 Kbps
Channel(s)                               : 6 channels
Channel positions                        : Front: L C R, Side: L R, LFE
Sampling rate                            : 48.0 KHz
Bit depth                                : 16 bits
Compression mode                         : Lossy
Delay relative to video                  : 5s 800ms
Stream size                              : 337 MiB (12%)
Title                                    : Castellano AC3 5.1
Language                                 : Spanish
Default                                  : No
Forced                                   : No

Audio #2
ID                                       : 3
Format                                   : AC-3
Format/Info                              : Audio Coding 3
Mode extension                           : CM (complete main)
Codec ID                                 : A_AC3
Duration                                 : 1h 45mn
Bit rate mode                            : Constant
Bit rate                                 : 448 Kbps
Channel(s)                               : 6 channels
Channel positions                        : Front: L C R, Side: L R, LFE
Sampling rate                            : 48.0 KHz
Bit depth                                : 16 bits
Compression mode                         : Lossy
Stream size                              : 337 MiB (12%)
Language                                 : English
Default                                  : No
Forced                                   : No

Text #1
ID                                       : 4
Format                                   : UTF-8
Codec ID                                 : S_TEXT/UTF8
Codec ID/Info                            : UTF-8 Plain Text
Title                                    : Forzados
Language                                 : Spanish
Default                                  : Yes
Forced                                   : Yes

Text #2
ID                                       : 5
Format                                   : UTF-8
Codec ID                                 : S_TEXT/UTF8
Codec ID/Info                            : UTF-8 Plain Text
Language                                 : Spanish
Default                                  : No
Forced                                   : No

Text #3
ID                                       : 6
Format                                   : UTF-8
Codec ID                                 : S_TEXT/UTF8
Codec ID/Info                            : UTF-8 Plain Text
Language                                 : English
Default                                  : No
Forced                                   : No


Contraseña / Password:
Código:
peliculastomas01


Descargar Gratis / Download Free:


FreakShare | uploadable | FireDriver(PutLocker)

Código:
http://goo.gl/2Zg6Y5

Notas:
----------------------------------------------------------------------------------------------------
-Si tienes problemas con el sonido reportamelo por MP, Ya le tengo solucion.
-Si algun enlace o link se cae, no lo avises comentando, hazlo por MP o por el reporte de links, asi me doy cuenta rapido.
-Verifica si he resubido los links aveces no lo comento en el foro, solo lo digo por el contenedor de links.
-Por favor, les pido que comenten sobre la calidad o sonido de la peli, asi los demas sabran lo que descargan.

----------------------------------------------------------------------------------------------------

Responder
Thanks given by:


Posibles temas similares...
Tema Autor Respuestas Vistas Último mensaje
  Las ratas del desierto [1953] [DVDRip] [Castellano] [Bélico IIGM] Blade Master 666 0 28 04-28-2017, 03:24 AM
Último mensaje: Blade Master 666
  Infierno en la bahía de San Francisco [1955] [DVDRip] [DUAL ES IN] [Thriller Drama] Blade Master 666 0 14 04-28-2017, 03:21 AM
Último mensaje: Blade Master 666
Video Turbo [2013][3D H-SBS 1080p][Ing-Lat] profito 0 8 04-28-2017, 02:45 AM
Último mensaje: profito
Video The Lion King III [2004][FullHD 1080][Ing-Lat] profito 0 5 04-27-2017, 11:28 PM
Último mensaje: profito



Usuarios navegando en este tema: 1 invitado(s)

Powered By MyBB, © 2002-2017 MyBB Group.