Calificación:
  • 0 voto(s) - 0 Media
  • 1
  • 2
  • 3
  • 4
  • 5

[-]
Etiquetas
accion chi link fd el poder 2013 tai castellano 1 del dvdrip

El poder del Tai Chi (2013) [DVDRip/Castellano] [Accion] [1 Link] [FD]

#1
Video 

Sinopsis / Synopsis:
El ambicioso y joven "Tigre", Chen Lin-Hu (Tiger Chen) trabaja de repartidor en la ajetreada ciudad de Pekín, pero cuando acaba la jornada laboral se convierte en una estrella de las artes marciales que ha ascendido por los diferentes niveles en representación del tradicional Tai Chi Ling Kong. El Tai Chi suele asociarse con movimientos tranquilos y comedidos. Tigre ha perfeccionado el antiguo arte y ha empezado a hacerse un nombre en el prestigioso campeonato de artes marciales Wulin Wang.

En Hong Kong, la detective Suen Jing-Si (Karen Mok), que forma parte del OCTB (Unidad contra el crimen organizado), ha llegado a un callejón sin salida persiguiendo a Donaka Mark (Keanu Reeves). Donaka es un poderoso hombre de negocios residente en Hong Kong que organiza peleas clandestinas sin reglas y retransmitidas de forma privada a apostantes ricos. Donaka necesita a una nueva estrella e intenta atraer a Tigre a sus redes con dinero.

Al principio, Tigre no se deja tentar, ya que está totalmente entregado a la pureza e integridad de su objetivo, pero cuando el templo donde practica se ve amenazado de destrucción por una inmobiliaria, decide probar suerte con la esperanza de poder salvar el legado de Tai Chi Ling Kong. Tigre no tarda en convertirse en la sensación de las peleas clandestinas, derrotando a sus oponentes con golpes letales. Pero poco a poco empieza a emerger su lado oscuro. La agresividad de Tigre durante el torneo Wulin Wang llama la atención de muchos y avergüenza a su viejo maestro (Yu Hai).

Aparentemente incapaz de controlarse, Tigre acaba colaborando con la detective Jing-Si para pillar a Donaka organizando combates clandestinos. Pero arriesga su vida en cada pelea. ¿Podrá Tigre cumplir con su objetivo y dominar su lado más oscuro?

Ficha Técnica / Technical details:
Título original: Man of Tai Chi
Título: El poder del Tai Chi
Año: 2013
Duración: 105 min.
País:Estados Unidos
Director: Keanu Reeves
Guión: Michael G. Cooney
Música: Chan Kwong-wing
Fotografía: Elliot Davis
Reparto: Keanu Reeves, Jeremy Marinas, Karen Mok, Iko Uwais, Brahim Achabbakhe, Tiger Hu Chen
Productora: Coproducción EEUU-China; China Film Group / Dalian Wanda Group / Village Roadshow Pictures
Género: Acción | Artes marciales

Trailer:




Datos Técnicos / Technical Data:
DVDRip | AVI | 1.23 GB | 720x300 | Castellano

Capturas / Screenshots:


Mediainfo:
Código:
General
Complete name                            : El poder del Tai Chi.DVDRip.Castellano(peliculastomas01).avi
Format                                   : AVI
Format/Info                              : Audio Video Interleave
Format profile                           : OpenDML
File size                                : 1.23 GiB
Duration                                 : 1h 40mn
Overall bit rate                         : 1 750 Kbps
Writing application                      : Lavf53.32.100

Video
ID                                       : 0
Format                                   : MPEG-4 Visual
Format profile                           : Advanced Simple@L5
Format settings, BVOP                    : 2
Format settings, QPel                    : No
Format settings, GMC                     : No warppoints
Format settings, Matrix                  : Default (H.263)
Muxing mode                              : Packed bitstream
Codec ID                                 : XVID
Codec ID/Hint                            : XviD
Duration                                 : 1h 40mn
Bit rate                                 : 1 353 Kbps
Width                                    : 720 pixels
Height                                   : 300 pixels
Display aspect ratio                     : 2.40:1
Frame rate                               : 25.000 fps
Color space                              : YUV
Chroma subsampling                       : 4:2:0
Bit depth                                : 8 bits
Scan type                                : Progressive
Compression mode                         : Lossy
Bits/(Pixel*Frame)                       : 0.251
Stream size                              : 976 MiB (77%)
Writing library                          : XviD 64

Audio
ID                                       : 1
Format                                   : AC-3
Format/Info                              : Audio Coding 3
Mode extension                           : CM (complete main)
Codec ID                                 : 2000
Duration                                 : 1h 40mn
Bit rate mode                            : Constant
Bit rate                                 : 384 Kbps
Channel(s)                               : 6 channels
Channel positions                        : Front: L C R, Side: L R, LFE
Sampling rate                            : 48.0 KHz
Bit depth                                : 16 bits
Compression mode                         : Lossy
Stream size                              : 277 MiB (22%)
Alignment                                : Aligned on interleaves
Interleave, duration                     : 32 ms (0.80 video frame)


Contraseña / Password:
Código:
peliculastomas01


Descargar Gratis / Download Free:


FreakShare | uploadable | FireDriver(PutLocker)

Código:
http://goo.gl/SdXahz

Notas:
----------------------------------------------------------------------------------------------------
-Si tienes problemas con el sonido reportamelo por MP, Ya le tengo solucion.
-Si algun enlace o link se cae, no lo avises comentando, hazlo por MP o por el reporte de links, asi me doy cuenta rapido.
-Verifica si he resubido los links aveces no lo comento en el foro, solo lo digo por el contenedor de links.
-Por favor, les pido que comenten sobre la calidad o sonido de la peli, asi los demas sabran lo que descargan.

----------------------------------------------------------------------------------------------------

Responder
Thanks given by:


Posibles temas similares...
Tema Autor Respuestas Vistas Último mensaje
Video Jason Bourne HD1080p Lat-Cast-Ing 5.1 (2016) dvdriplat 0 11 7 horas
Último mensaje: dvdriplat
Video Jason Bourne HD720p Lat-Cast-Ing 5.1 (2016) dvdriplat 0 9 7 horas
Último mensaje: dvdriplat
Video Fantastic Beasts and Where to Find Them [2016][3D H-SBS 1080p][Ing-Lat] profito 0 8 11 horas
Último mensaje: profito
  El halcón maltés [1941] [HDRIP] [DUAL ES IN] ][Cine Negro] Blade Master 666 0 4 Hoy, 12:58 AM
Último mensaje: Blade Master 666



Usuarios navegando en este tema: 1 invitado(s)

Powered By MyBB, © 2002-2017 MyBB Group.