Calificación:
  • 0 voto(s) - 0 Media
  • 1
  • 2
  • 3
  • 4
  • 5

[-]
Etiquetas
hielo pl link el frozen animacion 2013 castellano 1 del reino dvdrip

Frozen, el reino del hielo (2013) [DVDRip/Castellano] [Animacion] [1 Link] [PL]

#1
Video 

Sinopsis / Synopsis:
En "Frozen", una profecía condena a un reino a un invierno eterno. Así que Anna se ve obligada a unirse a Kristoff, un audaz hombre de las montañas, y emprender un viaje épico en busca de la Reina de la Nieve para poner fin al gélido hechizo. Anna y Kristoff harán frente a temperaturas extremas propias del Everest, a criaturas místicas y lucharán contra los elementos en una carrera contrarreloj para salvar al reino de la destrucción más absoluta.

Ficha Técnica / Technical details:
Título original: Frozen
Título : Frozen, el reino del hielo
Año:2013
Duración:108 min.
País: Estados Unidos
Director:Chris Buck, Jennifer Lee
Guión:Jennifer Lee (Novela: Hans Christian Andersen)
Reparto:Kristen BellIdina Menzel,Jonathan Groff,Josh Gad,Santino Fontana,Alan Tudyk,Ciarán Hinds,Chris Williams,Stephen J. Anderson,Maia Wilson,Edie McClurg,Robert Pine,Maurice LaMarche,Livvy Stubenrauch,Eva Bella
Productora:Walt Disney Animation Studios / Walt Disney Pictures
Género: Animación. Fantástico. Musical. Aventuras. Comedia. Infantil | Cuentos. 3-D
Estreno en USA: 27/11/2013
Estreno en España: 29/11/2013
Lanzamiento en DVD (alquiler): 26/03/2014
Estreno en Blu-ray: 26/03/2014

Trailer:




Datos Técnicos / Technical Data:

DVDRip | AVI | 1.17 GB | 720x320 | Castellano

Capturas / Screenshots:


Mediainfo:
Código:
General
Complete name                            : Frozen.DVDRip.Castellano(peliculastomas01).avi
Format                                   : AVI
Format/Info                              : Audio Video Interleave
File size                                : 1.17 GiB
Duration                                 : 1h 42mn
Overall bit rate                         : 1 642 Kbps
Writing application                      : VirtualDubMod 1.5.10.2 (build 2540/release)
Writing library                          : VirtualDubMod build 2540/release

Video
ID                                       : 0
Format                                   : MPEG-4 Visual
Format profile                           : Advanced Simple@L5
Format settings, BVOP                    : 2
Format settings, QPel                    : No
Format settings, GMC                     : No warppoints
Format settings, Matrix                  : Default (H.263)
Codec ID                                 : XVID
Codec ID/Hint                            : XviD
Duration                                 : 1h 42mn
Bit rate                                 : 1 249 Kbps
Width                                    : 720 pixels
Height                                   : 320 pixels
Display aspect ratio                     : 2.25:1
Frame rate                               : 23.976 fps
Color space                              : YUV
Chroma subsampling                       : 4:2:0
Bit depth                                : 8 bits
Scan type                                : Progressive
Compression mode                         : Lossy
Bits/(Pixel*Frame)                       : 0.226
Stream size                              : 913 MiB (76%)
Writing library                          : XviD 1.2.1 (UTC 2008-12-04)

Audio
ID                                       : 1
Format                                   : AC-3
Format/Info                              : Audio Coding 3
Mode extension                           : CM (complete main)
Codec ID                                 : 2000
Duration                                 : 1h 42mn
Bit rate mode                            : Constant
Bit rate                                 : 384 Kbps
Channel(s)                               : 6 channels
Channel positions                        : Front: L C R, Side: L R, LFE
Sampling rate                            : 48.0 KHz
Bit depth                                : 16 bits
Compression mode                         : Lossy
Stream size                              : 281 MiB (23%)
Alignment                                : Split accross interleaves
Interleave, duration                     : 42 ms (1.00 video frame)
Interleave, preload duration             : 500 ms


Contraseña / Password:
Código:
peliculastomas01


Descargar Gratis / Download Free:


FreakShare | uploadable | FireDriver(PutLocker)

Código:
http://goo.gl/4JlmGI

Notas:
----------------------------------------------------------------------------------------------------
-Si tienes problemas con el sonido reportamelo por MP, Ya le tengo solucion.
-Si algun enlace o link se cae, no lo avises comentando, hazlo por MP o por el reporte de links, asi me doy cuenta rapido.
-Verifica si he resubido los links aveces no lo comento en el foro, solo lo digo por el contenedor de links.
-Por favor, les pido que comenten sobre la calidad o sonido de la peli, asi los demas sabran lo que descargan.


----------------------------------------------------------------------------------------------------

Responder
Thanks given by:


Posibles temas similares...
Tema Autor Respuestas Vistas Último mensaje
  El lazarillo de Tormes (Sin censura) [1959] [DVBRIP] [Castellano] [Drama Comedia] Blade Master 666 0 4 2 horas
Último mensaje: Blade Master 666
  Siete ladrones [1960] [DVDRip] [DUAL ES IN] [Drama Robos Atracos] Blade Master 666 0 4 2 horas
Último mensaje: Blade Master 666
Video The Hobbit An Unexpected Journey [2012][3D H-SBS 1080p][Ing-Lat] profito 0 3 3 horas
Último mensaje: profito
  La autopsia de Jane Doe (2016)(HDRip)(Ingles/Subtitulada)(Terror)(BDupload) kz8307 0 4 4 horas
Último mensaje: kz8307



Usuarios navegando en este tema: 1 invitado(s)

Powered By MyBB, © 2002-2017 MyBB Group.