Calificación:
  • 1 voto(s) - 5 Media
  • 1
  • 2
  • 3
  • 4
  • 5

[-]
Etiquetas
latino tronos juego thrones de microhd720p of audio firedrive game

Game of thrones (Juego de tronos) (Microhd720p) (Audio Latino) (FireDrive)

#1
Video 






Juego de Tronos es una serie estadounidense de fantasía medieval creada por David Benioff y Dan Weiss para la cadena HBO. La serie esta basada en la novela Juego de tronos, primera parte de la serie Canción de hielo y fuego del escritor George R. R. Martin. La historia narra las violentas luchas dinásticas entre varias familias nobles por el control del Trono de Hierro del continente de Poniente






Video

ID                                       : 0

Format                                   : MPEG-4 Visual

Format profile                           : Advanced Simple@L5

Format settings, BVOP                    : 2

Format settings, QPel                    : No

Format settings, GMC                     : No warppoints

Format settings, Matrix                  : Default (H.263)

Muxing mode                              : Packed bitstream

Codec ID                                 : XVID

Codec ID/Hint                            : XviD

Duration                                 : 1h 0mn

Bit rate                                 : 1 537 Kbps

Width                                    : 1 280 pixels

Height                                   : 720 pixels

Display aspect ratio                     : 16:9

Frame rate                               : 23.976 fps

Color space                              : YUV

Chroma subsampling                       : 4:2:0

Bit depth                                : 8 bits

Scan type                                : Progressive

Compression mode                         : Lossy

Bits/(Pixel*Frame)                       : 0.070

Stream size                              : 662 MiB (82%)

Writing library                          : XviD 64



Audio

ID                                       : 1

Format                                   : MPEG Audio

Format version                           : Version 1

Format profile                           : Layer 3

Mode                                     : Joint stereo

Mode extension                           : MS Stereo

Codec ID                                 : 55

Codec ID/Hint                            : MP3

Duration                                 : 1h 0mn

Bit rate mode                            : Constant

Bit rate                                 : 320 Kbps

Channel count                            : 2 channels

Sampling rate                            : 48.0 KHz

Compression mode                         : Lossy

Stream size                              : 138 MiB (17%)

Alignment                                : Split accross interleaves

Interleave, duration                     : 42 ms (1.00 video frame)

Interleave, preload duration             : 500 ms

Writing library                          : LAMEUd






IMÁGENES DE VÍDEO EN LATINO






IMÁGENES DE VÍDEO SUBTITULADO AL ESPAÑOL











[1280x720, 01:00:10]





[720x404, 58:10]
















Responder
Thanks given by:


Posibles temas similares...
Tema Autor Respuestas Vistas Último mensaje
  Hijos de la anarquía (Serie de TV) (2008) (Temporada 1) [MP4 - Latino] gatowarez 0 21 04-07-2017, 02:25 AM
Último mensaje: gatowarez
  Spartacus: La guerra de los condenados (Temporada 3) (2013) [720p] [Latino] gatowarez 0 23 03-29-2017, 01:30 PM
Último mensaje: gatowarez
  Spartacus: Venganza (Serie de TV) (Temporada 2) (2012) [720p] [Latino] gatowarez 0 23 03-29-2017, 01:25 PM
Último mensaje: gatowarez
  Spartacus: Dioses de la Arena (Serie de Tv) (Precuela) (2011) [720p] [Latino] gatowarez 0 22 03-29-2017, 01:19 PM
Último mensaje: gatowarez



Usuarios navegando en este tema: 1 invitado(s)

Powered By MyBB, © 2002-2017 MyBB Group.