Calificación:
  • 0 voto(s) - 0 Media
  • 1
  • 2
  • 3
  • 4
  • 5

[-]
Etiquetas
link fd 2013 subtitulado her 1 drama dvdrip

Her (2013) [DVDRip/Subtitulado] [Drama] [1 Link] [FD]

#1
Video 


Sinopsis:
En un futuro cercano, Theodore, un escritor solitario, consigue un nuevo sistema operativo basado en el modelo de Inteligencia Artificial y diseñado para satisfacer todas las necesidades del usuario. Para sorpresa de Theodore, se crea una relación romántica entre él y la voz femenina de este sistema operativo.

Ficha Técnica:
Título original: Her
Año: 2013
Duración: 109 min.
País: Estados Unidos
Director: Spike Jonze
Guión: Spike Jonze
Reparto: Joaquin Phoenix, Amy Adams, Rooney Mara, Scarlett Johansson, Olivia Wilde, Chris Pratt, Sam Jaeger, Portia Doubleday, Katherine Boecher, Alia Janine, Matt Letscher
Productora: Sony Pictures Worldwide Acquisitions (SPWA) / Annapurna Pictures
Género: Ciencia ficción. Drama. Comedia. Romance | Comedia dramática. Internet/Informática
Estreno en USA: 18/12/2013
Estreno en España: 28/02/2014

Trailer:




Datos Técnicos:
DVDRip | AVI | 1.02 GB | 720x368 | Sub Español

Capturas:


Mediainfo:
Código:
General
Complete name                            : Her.DVDRip.sub(peliculastomas01).avi
Format                                   : AVI
Format/Info                              : Audio Video Interleave
File size                                : 1.02 GiB
Duration                                 : 2h 5mn
Overall bit rate                         : 1 162 Kbps
Writing application                      : VirtualDubMod 1.5.10.2 (build 2542/release)
Writing library                          : VirtualDubMod build 2542/release

Video
ID                                       : 0
Format                                   : MPEG-4 Visual
Format profile                           : Advanced Simple@L5
Format settings, BVOP                    : 1
Format settings, QPel                    : No
Format settings, GMC                     : No warppoints
Format settings, Matrix                  : Default (H.263)
Muxing mode                              : Packed bitstream
Codec ID                                 : XVID
Codec ID/Hint                            : XviD
Duration                                 : 2h 5mn
Bit rate                                 : 1 022 Kbps
Width                                    : 720 pixels
Height                                   : 368 pixels
Display aspect ratio                     : 1.957
Frame rate                               : 29.970 fps
Color space                              : YUV
Chroma subsampling                       : 4:2:0
Bit depth                                : 8 bits
Scan type                                : Progressive
Compression mode                         : Lossy
Bits/(Pixel*Frame)                       : 0.129
Stream size                              : 919 MiB (88%)
Writing library                          : XviD 64

Audio
ID                                       : 1
Format                                   : MPEG Audio
Format version                           : Version 1
Format profile                           : Layer 3
Mode                                     : Joint stereo
Mode extension                           : MS Stereo
Codec ID                                 : 55
Codec ID/Hint                            : MP3
Duration                                 : 2h 5mn
Bit rate mode                            : Constant
Bit rate                                 : 128 Kbps
Channel(s)                               : 2 channels
Sampling rate                            : 44.1 KHz
Compression mode                         : Lossy
Delay relative to video                  : 19ms
Stream size                              : 115 MiB (11%)
Alignment                                : Split accross interleaves
Interleave, duration                     : 33 ms (1.00 video frame)
Interleave, preload duration             : 500 ms


Contraseña / Password:
Código:
peliculastomas01


Descargar / Download:


FreakShare | uploadable | FireDriver(PutLocker)

Código:
http://goo.gl/IChrZq

Notas:
----------------------------------------------------------------------------------------------------
-Si tienes problemas con el sonido reportamelo por MP, Ya le tengo solucion.
-Si algun enlace o link se cae, no lo avises comentando, hazlo por MP o por el reporte de links, asi me doy cuenta rapido.
-Verifica si he resubido los links aveces no lo comento en el foro, solo lo digo por el contenedor de links.
-Por favor, les pido que comenten sobre la calidad o sonido de la peli, asi los demas sabran lo que descargan.


----------------------------------------------------------------------------------------------------

Responder
Thanks given by:


Posibles temas similares...
Tema Autor Respuestas Vistas Último mensaje
Video Jason Bourne HD1080p Lat-Cast-Ing 5.1 (2016) dvdriplat 0 11 7 horas
Último mensaje: dvdriplat
Video Jason Bourne HD720p Lat-Cast-Ing 5.1 (2016) dvdriplat 0 9 7 horas
Último mensaje: dvdriplat
Video Fantastic Beasts and Where to Find Them [2016][3D H-SBS 1080p][Ing-Lat] profito 0 8 11 horas
Último mensaje: profito
  El halcón maltés [1941] [HDRIP] [DUAL ES IN] ][Cine Negro] Blade Master 666 0 4 Hoy, 12:58 AM
Último mensaje: Blade Master 666



Usuarios navegando en este tema: 1 invitado(s)

Powered By MyBB, © 2002-2017 MyBB Group.