Calificación:
  • 0 voto(s) - 0 Media
  • 1
  • 2
  • 3
  • 4
  • 5

[-]
Etiquetas
latino davis pl link inside llewyn 2013 1 drama dvdrip

Inside Llewyn Davis (2013) [DVDRip/Latino] [Drama] [1 Link] [PL]

#1
Video 


Sinopsis:
Nueva York, año 1961. Llewyn Davis (Oscar Isaac) es un joven cantante de folk que vive de mala manera en el Greenwich Village. Con su guitarra a cuestas, sin casa fija y sin apenas dinero durante un gélido invierno, Llewyn lucha por ganarse la vida como músico. Sobrevive cantando en pequeños garitos a cambio de la voluntad del público y, sobre todo, gracias a la ayuda de unos pocos amigos que le prestan su sofá para pasar las frías noches. De los cafés del Village Llewyn decide viajar a Chicago buscando la oportunidad de hacer una prueba para el magnate de la música Bud Grossman.

Ficha Técnica:
Título original: Inside Llewyn Davis
Año: 2013
Duración: 105 min.
País: Estados Unidos
Director: Joel Coen, Ethan Coen
Guión: Joel Coen, Ethan Coen
Música: Varios
Fotografía: Bruno Delbonnel
Reparto: Oscar Isaac, Carey Mulligan, John Goodman, Ethan Phillips, Garrett Hedlund, Justin Timberlake, Max Casella, F. Murray Abraham, Jeanine Serralles, Stark Sands, Jerry Grayson, Robin Bartlett, Adam Driver
Productora: StudioCanal / Scott Rudin Productions / Mike Zoss Productions
Género: Drama | Comedia dramática. Música. Road Movie. Años 60. Gatos

Trailer:




Datos Técnicos:
DVDRip | AVI | 699 MB | 640x368 | Español Latino

Capturas:


Mediainfo:
Código:
General
Complete name                            : Inside Llewyn Davis.DVDRip.Latino(peliculastomas01).avi
Format                                   : AVI
Format/Info                              : Audio Video Interleave
File size                                : 699 MiB
Duration                                 : 1h 44mn
Overall bit rate                         : 937 Kbps
Recorded date                            : 29-03-2014
Writing application                      : VirtualDubMod 1.5.10.2 (build 2540/release)
Writing library                          : VirtualDubMod build 2540/release

Video
ID                                       : 0
Format                                   : MPEG-4 Visual
Format profile                           : Advanced Simple@L5
Format settings, BVOP                    : 1
Format settings, QPel                    : No
Format settings, GMC                     : No warppoints
Format settings, Matrix                  : Custom
Codec ID                                 : XVID
Codec ID/Hint                            : XviD
Duration                                 : 1h 44mn
Bit rate                                 : 799 Kbps
Width                                    : 640 pixels
Height                                   : 368 pixels
Display aspect ratio                     : 16:9
Frame rate                               : 23.976 fps
Color space                              : YUV
Chroma subsampling                       : 4:2:0
Bit depth                                : 8 bits
Scan type                                : Progressive
Compression mode                         : Lossy
Bits/(Pixel*Frame)                       : 0.142
Stream size                              : 597 MiB (85%)
Writing library                          : XviD 64

Audio
ID                                       : 1
Format                                   : MPEG Audio
Format version                           : Version 1
Format profile                           : Layer 3
Mode                                     : Joint stereo
Mode extension                           : MS Stereo
Codec ID                                 : 55
Codec ID/Hint                            : MP3
Duration                                 : 1h 44mn
Bit rate mode                            : Constant
Bit rate                                 : 128 Kbps
Channel(s)                               : 2 channels
Sampling rate                            : 44.1 KHz
Compression mode                         : Lossy
Stream size                              : 95.6 MiB (14%)
Alignment                                : Split accross interleaves
Interleave, duration                     : 42 ms (1.00 video frame)
Interleave, preload duration             : 500 ms
Writing library                          : LAME3.98.2
Language                                 : un


Contraseña / Password:
Código:
peliculastomas01


Descargar / Download:


FreakShare | uploadable | FireDriver(PutLocker)

Código:
http://goo.gl/ezMl4z

Notas:
----------------------------------------------------------------------------------------------------
-Si tienes problemas con el sonido reportamelo por MP, Ya le tengo solucion.
-Si algun enlace o link se cae, no lo avises comentando, hazlo por MP o por el reporte de links, asi me doy cuenta rapido.
-Verifica si he resubido los links aveces no lo comento en el foro, solo lo digo por el contenedor de links.
-Por favor, les pido que comenten sobre la calidad o sonido de la peli, asi los demas sabran lo que descargan.


----------------------------------------------------------------------------------------------------

Responder
Thanks given by:


Posibles temas similares...
Tema Autor Respuestas Vistas Último mensaje
Video Ultravioleta HD1080p Lat-Cast-Ing 5.1 (2006) dvdriplat 0 5 6 horas
Último mensaje: dvdriplat
Video Ultravioleta HD720p Lat-Cast-Ing 5.1 (2006) dvdriplat 0 4 6 horas
Último mensaje: dvdriplat
Video El Regreso De La Mosca HD1080p Lat-Cast-Ing 2.0 (1959) dvdriplat 0 7 Hoy, 05:13 AM
Último mensaje: dvdriplat
Video El Regreso De La Mosca HD720p Lat-Cast-Ing 2.0 (1959) dvdriplat 0 6 Hoy, 05:05 AM
Último mensaje: dvdriplat



Usuarios navegando en este tema: 1 invitado(s)

Powered By MyBB, © 2002-2017 MyBB Group.