Calificación:
  • 0 voto(s) - 0 Media
  • 1
  • 2
  • 3
  • 4
  • 5

[-]
Etiquetas
link fd ismael 2013 castellano 1 drama dvdrip

Ismael (2013) [DVDRip/Castellano] [Drama] [1 Link] [FD]

#1
Video 

Sinopsis / Synopsis:
Ismael Tchou (Larsson Do Amaral), 10 años y de madre africana, coge el AVE en Atocha rumbo a Barcelona. Se ha fugado de su casa porque quiere encontrar a Félix Ambrós (Mario Casas), su padre, al que nunca conoció. Su única pista es una dirección de un apartamento en la Ciudad Condal, escrita en el remite de una carta dirigida a su madre Alika (Ella Kweku). Una vez allí consigue encontrar el edificio, pero en el apartamento sólo encuentra a Nora (Belén Rueda), una elegante mujer de unos 50 años que resulta ser la madre de Félix Ambrós, es decir, su desconocida abuela.

Félix nunca le dijo a Nora nada sobre la existencia de ese niño, pero tan pronto ella lo localiza por teléfono, no niega su paternidad. Después de avisar a la madre del niño, Nora decide llevarlo a conocer a su padre. Abuela y nieto emprenden un viaje hacia un pueblo de Girona donde Félix vive desde hace tiempo. Al mismo tiempo, Alika y su marido Eduardo (Juan Diego Botto) viajan desde Madrid hacia Girona en busca del chico.

El encuentro que desencadena Ismael con el deseo de conocer a su padre biológico, hará que todos los personajes traten de saldar sus cuentas con el pasado.

Ficha Técnica / Technical details:
Título original: Ismael
Año: 2013
Duración: 110 min.
País: España
Director: Marcelo Piñeyro
Guión: Verónica Fernández, Marcelo Figueras, Marcelo Piñeyro
Fotografía: Xavi Giménez
Reparto: Mario Casas, Larsson do Amaral, Belén Rueda, Ella Kweku, Sergi López, Juan Diego Botto, Mikel Iglesias, Gemma Brió, Óscar Foronda, Alain Hernández
Productora: Antena 3 Films / Zeta Audiovisual
Género: Drama | Melodrama. Inmigración. Drama social
Estreno en USA:---
Estreno en España: 25/12/2013

Trailer:




Datos Técnicos / Technical Data:
DVDRip | AVI | 1.23 GB | 720x300 | Castellano

Capturas /
Screenshots:


Mediainfo:
Código:
General
Complete name                            : Ismael.DVDRip.Castellano(peliculastomas01).avi
Format                                   : AVI
Format/Info                              : Audio Video Interleave
File size                                : 1.23 GiB
Duration                                 : 1h 46mn
Overall bit rate                         : 1 655 Kbps
Writing application                      : VirtualDubMod 1.5.10.2 (build 2540/release)
Writing library                          : VirtualDubMod build 2540/release

Video
ID                                       : 0
Format                                   : MPEG-4 Visual
Format profile                           : Advanced Simple@L5
Format settings, BVOP                    : 2
Format settings, QPel                    : No
Format settings, GMC                     : No warppoints
Format settings, Matrix                  : Default (MPEG)
Muxing mode                              : Packed bitstream
Codec ID                                 : XVID
Codec ID/Hint                            : XviD
Duration                                 : 1h 46mn
Bit rate                                 : 1 197 Kbps
Width                                    : 720 pixels
Height                                   : 300 pixels
Display aspect ratio                     : 2.40:1
Frame rate                               : 25.000 fps
Color space                              : YUV
Chroma subsampling                       : 4:2:0
Bit depth                                : 8 bits
Scan type                                : Progressive
Compression mode                         : Lossy
Bits/(Pixel*Frame)                       : 0.222
Stream size                              : 913 MiB (72%)
Writing library                          : XviD 64

Audio
ID                                       : 1
Format                                   : AC-3
Format/Info                              : Audio Coding 3
Mode extension                           : CM (complete main)
Codec ID                                 : 2000
Duration                                 : 1h 46mn
Bit rate mode                            : Constant
Bit rate                                 : 448 Kbps
Channel(s)                               : 6 channels
Channel positions                        : Front: L C R, Side: L R, LFE
Sampling rate                            : 48.0 KHz
Bit depth                                : 16 bits
Compression mode                         : Lossy
Stream size                              : 342 MiB (27%)
Alignment                                : Split accross interleaves
Interleave, duration                     : 40 ms (1.00 video frame)
Interleave, preload duration             : 500 ms


Contraseña / Password:
Código:
tomas01


Descargar Gratis / Download Free:


FreakShare | FileOm | FireDriver(PutLocker)

Código:
http://goo.gl/xfd4Re

Notas de aclaración:
----------------------------------------------------------------------------------------------------
Esto es para que quede en claro, mis pelis se escuchan porque yo las oigo en mi PC, si tienes problemas con el sonido o video entra al contenedor de links hay le tengo solución.
Si vas a reportar links rotos lo puedes hacer por MP o por el reporte de links ''esta junto en los links'' revisa los links si lo he resubido, no lo comento por el tiempo.


----------------------------------------------------------------------------------------------------

Responder
Thanks given by:


Posibles temas similares...
Tema Autor Respuestas Vistas Último mensaje
Video Jason Bourne HD1080p Lat-Cast-Ing 5.1 (2016) dvdriplat 0 11 7 horas
Último mensaje: dvdriplat
Video Jason Bourne HD720p Lat-Cast-Ing 5.1 (2016) dvdriplat 0 9 7 horas
Último mensaje: dvdriplat
Video Fantastic Beasts and Where to Find Them [2016][3D H-SBS 1080p][Ing-Lat] profito 0 8 11 horas
Último mensaje: profito
  El halcón maltés [1941] [HDRIP] [DUAL ES IN] ][Cine Negro] Blade Master 666 0 4 Hoy, 12:58 AM
Último mensaje: Blade Master 666



Usuarios navegando en este tema: 1 invitado(s)

Powered By MyBB, © 2002-2017 MyBB Group.