Calificación:
  • 0 voto(s) - 0 Media
  • 1
  • 2
  • 3
  • 4
  • 5

[-]
Etiquetas
latino pl link de 2013 increible walter mitty 1 la aventura vida dvdrip

La Increible Vida De Walter Mitty (2013) [DVDRip/Latino] [Aventura] [1 Link] [PL]

#1
Video 


Sinopsis:
El tímido empleado de una editorial consigue evadirse de su gris existencia imaginando que es el protagonista de grandes aventuras; un día, su sueño se hace realidad cuando conoce a una misteriosa mujer que le implica en una peligrosa misión… Remake de 'La vida secreta de Walter Mitty' (1947), película dirigida por Norman Z. McLeod e inspirada en un relato de James Thurber.

Ficha Técnica:
Título original: The Secret Life of Walter Mitty
Otros Títulos: La Increible Vida De Walter Mitty
Año: 2013
Duración: 114 min.
País: Estados Unidos
Director: Ben Stiller
Guión: Steve Conrad, James Thurber
Música: Theodore Shapir
Fotografía: Stuart Dryburgh
Reparto: Ben Stiller, Kristen Wiig, Adam Scott, Patton Oswalt, Shirley MacLaine, Kathryn Hahn, Sean Penn, Finise Avery, Joey Slotnick, Toshiko Onizawa, Adrian Martinez
Productora: 20th Century Fox / Red House Entertainment / Truenorth Productions
Género: Aventuras. Comedia | Road Movie. Fotografía. Remake

Trailer:




Datos Técnicos:
DVDRip | AVI | 696 MB | 640x272 | Español Latino

Capturas:


Mediainfo:
Código:
General
Complete name                            : La Increible Vida De Walter Mitty.DVDRip.Latino(peliculastomas01).avi
Format                                   : AVI
Format/Info                              : Audio Video Interleave
File size                                : 697 MiB
Duration                                 : 1h 54mn
Overall bit rate                         : 854 Kbps
Writing application                      : VirtualDubMod 1.5.10.2 (build 2542/release)
Writing library                          : VirtualDubMod build 2542/release

Video
ID                                       : 0
Format                                   : MPEG-4 Visual
Format profile                           : Advanced Simple@L5
Format settings, BVOP                    : 2
Format settings, QPel                    : No
Format settings, GMC                     : No warppoints
Format settings, Matrix                  : Default (H.263)
Codec ID                                 : XVID
Codec ID/Hint                            : XviD
Duration                                 : 1h 54mn
Bit rate                                 : 732 Kbps
Width                                    : 640 pixels
Height                                   : 272 pixels
Display aspect ratio                     : 2.35:1
Frame rate                               : 23.976 fps
Color space                              : YUV
Chroma subsampling                       : 4:2:0
Bit depth                                : 8 bits
Scan type                                : Progressive
Compression mode                         : Lossy
Bits/(Pixel*Frame)                       : 0.175
Stream size                              : 598 MiB (86%)
Writing library                          : XviD 1.2.1 (UTC 2008-12-04)

Audio
ID                                       : 1
Format                                   : MPEG Audio
Format version                           : Version 1
Format profile                           : Layer 3
Mode                                     : Joint stereo
Mode extension                           : MS Stereo
Codec ID                                 : 55
Codec ID/Hint                            : MP3
Duration                                 : 1h 54mn
Bit rate mode                            : Constant
Bit rate                                 : 112 Kbps
Channel(s)                               : 2 channels
Sampling rate                            : 44.1 KHz
Compression mode                         : Lossy
Delay relative to video                  : 11ms
Stream size                              : 91.4 MiB (13%)
Alignment                                : Split accross interleaves
Interleave, duration                     : 42 ms (1.00 video frame)
Interleave, preload duration             : 500 ms


Contraseña / Password:
Código:
peliculastomas01


Descargar / Download:


FreakShare | uploadable | FireDriver(PutLocker)

Código:
http://goo.gl/vCvR7W

Notas:
----------------------------------------------------------------------------------------------------
-Si tienes problemas con el sonido reportamelo por MP, Ya le tengo solucion.
-Si algun enlace o link se cae, no lo avises comentando, hazlo por MP o por el reporte de links, asi me doy cuenta rapido.
-Verifica si he resubido los links aveces no lo comento en el foro, solo lo digo por el contenedor de links.
-Por favor, les pido que comenten sobre la calidad o sonido de la peli, asi los demas sabran lo que descargan.


----------------------------------------------------------------------------------------------------

Responder
Thanks given by:


Posibles temas similares...
Tema Autor Respuestas Vistas Último mensaje
Video Ultravioleta HD1080p Lat-Cast-Ing 5.1 (2006) dvdriplat 0 5 6 horas
Último mensaje: dvdriplat
Video Ultravioleta HD720p Lat-Cast-Ing 5.1 (2006) dvdriplat 0 4 6 horas
Último mensaje: dvdriplat
Video El Regreso De La Mosca HD1080p Lat-Cast-Ing 2.0 (1959) dvdriplat 0 7 Hoy, 05:13 AM
Último mensaje: dvdriplat
Video El Regreso De La Mosca HD720p Lat-Cast-Ing 2.0 (1959) dvdriplat 0 6 Hoy, 05:05 AM
Último mensaje: dvdriplat



Usuarios navegando en este tema: 1 invitado(s)

Powered By MyBB, © 2002-2017 MyBB Group.