Calificación:
  • 0 voto(s) - 0 Media
  • 1
  • 2
  • 3
  • 4
  • 5

[-]
Etiquetas
leyenda link fd samurái 2013 castellano 1 la del acción dvdrip

La leyenda del samurái (2013) [DVDRip/Castellano] [Acción] [1 Link] [FD]

#1
Video 

Sinopsis / Synopsis:
La aventura de fantasía épica '47 Ronin' es una de las leyendas más antiguas de Japón. Keanu Reeves encabeza el reparto en el papel de Kai, un paria que se une a Oishi (Hiroyuki Sanada), líder de los 47 Ronin. Juntos intentarán vengarse del traidor que mató a su señor y les condenó al destierro. Para restituir el honor a su tierra natal, los guerreros se lanzan a una búsqueda plagada de duras pruebas capaces de destruir a cualquier otro

Ficha Técnica / Technical details:
Título original: 47 Ronin
Título : La leyenda del samurái (47 Ronin)
Año: 2013
Duración: 119 min.
País: Estados Unidos
Director: Carl Erik Rinsch
Guión: Hossein Amini, Chris Morgan
Música: Ilan Eshkeri
Fotografía: John Mathieson
Reparto: Keanu Reeves, Hiroyuki Sanada, Tadanobu Asano, Rinko Kikuchi, Kou Shibasaki, Min Tanaka, Cary-Hiroyuki Tagawa, Jin Akanishi, Masayoshi Haneda, Hiroshi Sogabe, Takato Yonemoto, Hiroshi Yamada, Yorick van Wageningen, Masayuki Deai, Shu Nakayima, Togo Igawa, Natsuki Kunimoto, Gedde Watanabe
Productora: Universal Pictures / H2F Entertainment / Stuber Productions
Género: Acción. Drama. Fantástico | Japón feudal. Samuráis. Siglo XVIII. Venganza. 3-D

Trailer:




Datos Técnicos / Technical Data:
DVDRip | AVI | 1.33 GB | 720x304 | Castellano

Capturas /
Screenshots:


Mediainfo:
Código:
General
Complete name                            : 47.Ronin.DVDRip.Castellano-By tomas01.avi
Format                                   : AVI
Format/Info                              : Audio Video Interleave
File size                                : 1.33 GiB
Duration                                 : 1h 58mn
Overall bit rate                         : 1 606 Kbps
Writing application                      : VirtualDubMod 1.5.10.2 (build 2540/release)
Writing library                          : VirtualDubMod build 2540/release

Video
ID                                       : 0
Format                                   : MPEG-4 Visual
Format profile                           : Advanced Simple@L5
Format settings, BVOP                    : 1
Format settings, QPel                    : No
Format settings, GMC                     : No warppoints
Format settings, Matrix                  : Default (MPEG)
Muxing mode                              : Packed bitstream
Codec ID                                 : XVID
Codec ID/Hint                            : XviD
Duration                                 : 1h 58mn
Bit rate                                 : 1 213 Kbps
Width                                    : 720 pixels
Height                                   : 304 pixels
Display aspect ratio                     : 2.35:1
Frame rate                               : 23.976 fps
Color space                              : YUV
Chroma subsampling                       : 4:2:0
Bit depth                                : 8 bits
Scan type                                : Progressive
Compression mode                         : Lossy
Bits/(Pixel*Frame)                       : 0.231
Stream size                              : 1.01 GiB (76%)
Writing library                          : XviD 62

Audio
ID                                       : 1
Format                                   : AC-3
Format/Info                              : Audio Coding 3
Mode extension                           : CM (complete main)
Codec ID                                 : 2000
Duration                                 : 1h 58mn
Bit rate mode                            : Constant
Bit rate                                 : 384 Kbps
Channel(s)                               : 6 channels
Channel positions                        : Front: L C R, Side: L R, LFE
Sampling rate                            : 48.0 KHz
Bit depth                                : 16 bits
Compression mode                         : Lossy
Stream size                              : 326 MiB (24%)
Alignment                                : Split accross interleaves
Interleave, duration                     : 42 ms (1.00 video frame)
Interleave, preload duration             : 500 ms


Contraseña / Password:
Código:
tomas01


Descargar Gratis / Download Free:


FreakShare | FileOm | FireDriver(PutLocker)

Código:
http://goo.gl/bCHdZN

Notas de aclaración:
----------------------------------------------------------------------------------------------------
Esto es para que quede en claro, mis pelis se escuchan porque yo las oigo en mi PC, si tienes problemas con el sonido o video entra al contenedor de links hay le tengo solución.
Si vas a reportar links rotos lo puedes hacer por MP o por el reporte de links ''esta junto en los links'' revisa los links si lo he resubido, no lo comento por el tiempo.


----------------------------------------------------------------------------------------------------

Responder
Thanks given by:


Posibles temas similares...
Tema Autor Respuestas Vistas Último mensaje
Video Jason Bourne HD1080p Lat-Cast-Ing 5.1 (2016) dvdriplat 0 11 7 horas
Último mensaje: dvdriplat
Video Jason Bourne HD720p Lat-Cast-Ing 5.1 (2016) dvdriplat 0 9 7 horas
Último mensaje: dvdriplat
Video Fantastic Beasts and Where to Find Them [2016][3D H-SBS 1080p][Ing-Lat] profito 0 8 11 horas
Último mensaje: profito
  El halcón maltés [1941] [HDRIP] [DUAL ES IN] ][Cine Negro] Blade Master 666 0 4 Hoy, 12:58 AM
Último mensaje: Blade Master 666



Usuarios navegando en este tema: 1 invitado(s)

Powered By MyBB, © 2002-2017 MyBB Group.