Calificación:
  • 0 voto(s) - 0 Media
  • 1
  • 2
  • 3
  • 4
  • 5

[-]
Etiquetas
latino link 1995 de madison puentes 1 drama los dvdrip

Los Puentes De Madison (1995) [DVDRip/Latino] [Drama] [1 Link]

#1
Video 

Subida por pedido

Sinopsis / Synopsis:
Meryl Streep es un ama de casa que abandonó sus sueños por cuidar de su marido y criar a sus hijos en una pequeña granja del perdido condado de Madison. La llegada de un fotógrafo del National Geographic (Clint Eastwood), un fin de semana que su familia está fuera, le abrirá los ojos y el corazón a un mundo enterrado en años de rutina, y le hará aflorar sentimientos escondidos que entrarán en conflicto con la persona que ha sido hasta ese momento. Curiosamente, el mejor melodrama romántico de las últimas décadas no está protagonizado por guapos adolescentes, sino por dos maduros actores que nos regalan una historia de amor conmovedora, real y de una sutileza mérito del clasicismo del mejor Eastwood-director. La ceguera de Hollywood la nominó a sólo un Oscar -mejor actriz-, pero tras su visión uno se pregunta si realmente en todo el metraje de "Braveheart" más "Babe" más "Apolo XIII" -las 3 principales películas nominadas ese mismo año- hay un atisbo de tanta sutil intensidad como en esa escena en la que el duro Clint llora de amor bajo la lluvia mientras la mano de Streep duda entre abrir la puerta a una nueva vida…

Ficha Técnica / Technical details:
Título original: The Bridges of Madison County
Titulo : Los puentes de Madison
Año: 1995
Duración: 135 min.
País: Estados Unidos
Director: Clint Eastwood
Guión: Richard LaGravenese (Novela: Robert James Waller)
Música: Lennie Niehaus
Fotografía: Jack N. Green
Reparto: Meryl Streep, Clint Eastwood, Annie Corley, Jim Haynie, Victor Slezak, Debra Monk, Michelle Benes
Productora: Warner Bros / Malpaso / Amblin
Género: Romance. Drama | Drama romántico. Vida rural (Norteamérica). Melodrama. Fotografía

Trailer:




Datos Técnicos / Technical Data:
DVDRip | AVI | 1.45 GB | 688x384 | Español Latino

Capturas / Screenshots:


Mediainfo:
Código:
General
Complete name                            : Los Puentes De Madison.DVDRip.Latino(peliculastomas01).avi
Format                                   : AVI
Format/Info                              : Audio Video Interleave
File size                                : 1.45 GiB
Duration                                 : 2h 9mn
Overall bit rate                         : 1 604 Kbps
Writing application                      : VirtualDubMod 1.5.10.2 (build 2540/release)
Writing library                          : VirtualDubMod build 2540/release

Video
ID                                       : 0
Format                                   : MPEG-4 Visual
Format profile                           : Advanced Simple@L5
Format settings, BVOP                    : 1
Format settings, QPel                    : No
Format settings, GMC                     : No warppoints
Format settings, Matrix                  : Default (MPEG)
Muxing mode                              : Packed bitstream
Codec ID                                 : XVID
Codec ID/Hint                            : XviD
Duration                                 : 2h 9mn
Bit rate                                 : 1 205 Kbps
Width                                    : 688 pixels
Height                                   : 384 pixels
Display aspect ratio                     : 16:9
Frame rate                               : 25.000 fps
Color space                              : YUV
Chroma subsampling                       : 4:2:0
Bit depth                                : 8 bits
Scan type                                : Progressive
Compression mode                         : Lossy
Bits/(Pixel*Frame)                       : 0.182
Stream size                              : 1.09 GiB (75%)
Writing library                          : XviD 1.2.1 (UTC 2008-12-04)

Audio #1
ID                                       : 1
Format                                   : AC-3
Format/Info                              : Audio Coding 3
Mode extension                           : CM (complete main)
Codec ID                                 : 2000
Duration                                 : 2h 9mn
Bit rate mode                            : Constant
Bit rate                                 : 192 Kbps
Channel(s)                               : 2 channels
Channel positions                        : Front: L R
Sampling rate                            : 48.0 KHz
Bit depth                                : 16 bits
Compression mode                         : Lossy
Stream size                              : 177 MiB (12%)
Alignment                                : Split accross interleaves
Interleave, duration                     : 40 ms (1.00 video frame)
Interleave, preload duration             : 500 ms

Audio #2
ID                                       : 2
Format                                   : MPEG Audio
Format version                           : Version 1
Format profile                           : Layer 3
Mode                                     : Joint stereo
Mode extension                           : MS Stereo
Codec ID                                 : 55
Codec ID/Hint                            : MP3
Duration                                 : 2h 9mn
Bit rate mode                            : Constant
Bit rate                                 : 192 Kbps
Channel(s)                               : 2 channels
Sampling rate                            : 48.0 KHz
Compression mode                         : Lossy
Stream size                              : 177 MiB (12%)
Alignment                                : Aligned on interleaves
Interleave, duration                     : 40 ms (1.00 video frame)
Interleave, preload duration             : 504 ms
Writing library                          : LAME3.97
Encoding settings                        : -m j -V 4 -q 2 -lowpass 18.6 -b 192

Contraseña / Password:
Código:
peliculastomas01

Descargar Gratis / Download Free:

FreakShare | uploadable | FireDriver(PutLocker)

Código:
http://goo.gl/zEhrme

Notas:
----------------------------------------------------------------------------------------------------
-Si tienes problemas con el sonido reportamelo por MP, Ya le tengo solucion.
-Si algun enlace o link se cae, no lo avises comentando, hazlo por MP o por el reporte de links, asi me doy cuenta rapido.
-Verifica si he resubido los links aveces no lo comento en el foro, solo lo digo por el contenedor de links.
-Por favor, les pido que comenten sobre la calidad o sonido de la peli, asi los demas sabran lo que descargan.


----------------------------------------------------------------------------------------------------

Responder
Thanks given by:


Posibles temas similares...
Tema Autor Respuestas Vistas Último mensaje
Video Fantastic Beasts and Where to Find Them [2016][3D H-SBS 1080p][Ing-Lat] profito 0 8 2 horas
Último mensaje: profito
  El halcón maltés [1941] [HDRIP] [DUAL ES IN] ][Cine Negro] Blade Master 666 0 4 4 horas
Último mensaje: Blade Master 666
Video Ultravioleta HD1080p Lat-Cast-Ing 5.1 (2006) dvdriplat 0 7 Ayer, 02:16 PM
Último mensaje: dvdriplat
Video Ultravioleta HD720p Lat-Cast-Ing 5.1 (2006) dvdriplat 0 5 Ayer, 02:05 PM
Último mensaje: dvdriplat



Usuarios navegando en este tema: 1 invitado(s)

Powered By MyBB, © 2002-2017 MyBB Group.