Calificación:
  • 0 voto(s) - 0 Media
  • 1
  • 2
  • 3
  • 4
  • 5

[-]
Etiquetas
pl link resacón comedia juegos 2013 castellano 1 del los dvdrip

Los juegos del resacón (2013) [DVDRip/Castellano] [Comedia] [1 Link] [PL]

#1
Video 

Sinopsis / Synopsis:
Tras celebrar la inminente boda de Doug, Bradley, Ed y Zach se despiertan en una habitación extraña en un mundo aún más extraño sin su amigo Doug. Cuando conocen al altivo Effing y al alcohólico Justmitch, los tres empiezan a encajar las piezas del misterio y se dan cuenta de que están en los Juegos de la Resaca. Pero en lugar de los doce distritos de los Juegos del Hambre, los chicos tienen que hacer un mano a mano con varios distritos de la cultura pop, como el Distrito de los Superhéroes, el Distrito de la Desnudez Gratuita y el Distrito Johnny Depp.

Ficha Técnica / Technical details:
Título original: The Hungover Games
Tituls: Los juegos del resacón (AKA Resaca mortal)
Año: 2014
Duración: 85 min.
País: Estados Unidos
Director: Josh Stolberg
Guión: Kyle Barnett Anderson, David Bernstein (Argumento: Kyle Barnett Anderson, David Bernstein, Jamie Kennedy)
Música: Todd Haberman
Fotografía: Andrew Strahorn
Reparto: Ross Nathan, Ben Begley, Herbert Russell, Rita Volk, Tara Reid, Robert Wagner, Kyle Richards, Jamie Kennedy, Kayden Kross, Martin Klebba, Jonathan Silverman, Sophie Dee, Bruce Jenner
Productora: Sense and Sensibility Ventures / Silver Nitrate
Género: Comedia | Comedia absurda. Parodia

Trailer:




Datos Técnicos / Technical Data:
DVDRip | AVI | 892 MB | 704x400 | Castellano

Capturas / Screenshots:


Mediainfo:
Código:
General
Complete name                            : Los juegos del resacon.DVDRip.Castellano(peliculastomas01).avi
Format                                   : AVI
Format/Info                              : Audio Video Interleave
File size                                : 893 MiB
Duration                                 : 1h 25mn
Overall bit rate                         : 1 459 Kbps
Writing application                      : VirtualDubMod 1.5.10.2 (build 2540/release)
Writing library                          : VirtualDubMod build 2540/release

Video
ID                                       : 0
Format                                   : MPEG-4 Visual
Format profile                           : Advanced Simple@L5
Format settings, BVOP                    : 2
Format settings, QPel                    : No
Format settings, GMC                     : No warppoints
Format settings, Matrix                  : Default (H.263)
Muxing mode                              : Packed bitstream
Codec ID                                 : XVID
Codec ID/Hint                            : XviD
Duration                                 : 1h 25mn
Bit rate                                 : 1 003 Kbps
Width                                    : 704 pixels
Height                                   : 400 pixels
Display aspect ratio                     : 16:9
Frame rate                               : 23.976 fps
Color space                              : YUV
Chroma subsampling                       : 4:2:0
Bit depth                                : 8 bits
Scan type                                : Progressive
Compression mode                         : Lossy
Bits/(Pixel*Frame)                       : 0.149
Stream size                              : 614 MiB (69%)
Writing library                          : XviD 64

Audio
ID                                       : 1
Format                                   : AC-3
Format/Info                              : Audio Coding 3
Mode extension                           : CM (complete main)
Codec ID                                 : 2000
Duration                                 : 1h 25mn
Bit rate mode                            : Constant
Bit rate                                 : 448 Kbps
Channel(s)                               : 6 channels
Channel positions                        : Front: L C R, Side: L R, LFE
Sampling rate                            : 48.0 KHz
Bit depth                                : 16 bits
Compression mode                         : Lossy
Delay relative to video                  : 7ms
Stream size                              : 273 MiB (31%)
Alignment                                : Split accross interleaves
Interleave, duration                     : 42 ms (1.00 video frame)
Interleave, preload duration             : 500 ms


Contraseña / Password:
Código:
peliculastomas01


Descargar Gratis / Download Free:


FreakShare | uploadable | FireDriver(PutLocker)

Código:
http://goo.gl/eeXL1a

Notas:
----------------------------------------------------------------------------------------------------
-Si tienes problemas con el sonido reportamelo por MP, Ya le tengo solucion.
-Si algun enlace o link se cae, no lo avises comentando, hazlo por MP o por el reporte de links, asi me doy cuenta rapido.
-Verifica si he resubido los links aveces no lo comento en el foro, solo lo digo por el contenedor de links.
-Por favor, les pido que comenten sobre la calidad o sonido de la peli, asi los demas sabran lo que descargan.


----------------------------------------------------------------------------------------------------

Responder
Thanks given by:


Posibles temas similares...
Tema Autor Respuestas Vistas Último mensaje
  El lazarillo de Tormes (Sin censura) [1959] [DVBRIP] [Castellano] [Drama Comedia] Blade Master 666 0 4 2 horas
Último mensaje: Blade Master 666
  Siete ladrones [1960] [DVDRip] [DUAL ES IN] [Drama Robos Atracos] Blade Master 666 0 4 2 horas
Último mensaje: Blade Master 666
Video The Hobbit An Unexpected Journey [2012][3D H-SBS 1080p][Ing-Lat] profito 0 3 3 horas
Último mensaje: profito
  La autopsia de Jane Doe (2016)(HDRip)(Ingles/Subtitulada)(Terror)(BDupload) kz8307 0 4 4 horas
Último mensaje: kz8307



Usuarios navegando en este tema: 1 invitado(s)

Powered By MyBB, © 2002-2017 MyBB Group.