Calificación:
  • 0 voto(s) - 0 Media
  • 1
  • 2
  • 3
  • 4
  • 5

[-]
Etiquetas
latino lotoman 2012 pl link español comedia 1 2 dvdrip

Lotoman 2.0 (2012) [DVDRip/Español Latino] [Comedia] [1 Link] [PL]

#1
Video 

Subida por pedido

Sinopsis:
Rich, united and happy, Modesto and Manuel live great moments. They share responsabilities in Chichi Luxury Extreme and they are dedicated to pimping each other out and enjoying life. But their happiness isn't complete. Manuel has to deal with Sobeida's pregnancy and all the cravings that come along with it. Modesto sees the situation and he no longer wants to be alone, he is determined to find the love of his life. Then comes along Marcelo an international marketer which takes on the task of orienting orienting Manuel in to find that special woman for his brother who is aspiring on becoming a desirable stud. On the other hand Susanita avoids great troubles from a big problem and Mama Susana is diagnosed with a terminal disease, money cant cure every problem. Nevertheless nothing can destroy a united family.

Ficha Técnica:
Titulo Original: Lotoman 2.0
Año: 2012
Pais: Republica Dominicana
Director: Archie Lopez
Reparto: Dalisa Alegria, Fernando Carillo, Miguel Céspedes, Pachy Méndez, Mario Peguero, Raymond Pozo, Hector Then
Genero Comedia | Cine familiar. Familia

Trailer:




Datos Técnicos:
DVDRip | MP4 | 358 MB | 638x360 | Español Latino

Capturas:


Mediainfo:
Código:
General
Complete name                            : Lotoman 2.0.DVDRip.Latino(peliculastomas01).mp4
Format                                   : MPEG-4
Format profile                           : Base Media / Version 2
Codec ID                                 : mp42
File size                                : 358 MiB
Duration                                 : 1h 36mn
Overall bit rate mode                    : Variable
Overall bit rate                         : 517 Kbps
Encoded date                             : UTC 2013-06-24 09:54:20
Tagged date                              : UTC 2013-06-24 09:54:20
gsst                                     : 0
gstd                                     : 5804315
gssd                                     : BBEA7F18AHH1372706429980983

Video
ID                                       : 1
Format                                   : AVC
Format/Info                              : Advanced Video Codec
Format profile                           : Baseline@L3.0
Format settings, CABAC                   : No
Format settings, ReFrames                : 1 frame
Format settings, GOP                     : M=1, N=60
Codec ID                                 : avc1
Codec ID/Info                            : Advanced Video Coding
Duration                                 : 1h 36mn
Bit rate                                 : 419 Kbps
Maximum bit rate                         : 1 261 Kbps
Width                                    : 638 pixels
Height                                   : 360 pixels
Display aspect ratio                     : 16:9
Frame rate mode                          : Constant
Frame rate                               : 29.970 fps
Color space                              : YUV
Chroma subsampling                       : 4:2:0
Bit depth                                : 8 bits
Scan type                                : Progressive
Bits/(Pixel*Frame)                       : 0.061
Stream size                              : 290 MiB (81%)
Tagged date                              : UTC 2013-06-24 09:56:50

Audio
ID                                       : 2
Format                                   : AAC
Format/Info                              : Advanced Audio Codec
Format profile                           : LC
Codec ID                                 : 40
Duration                                 : 1h 36mn
Bit rate mode                            : Variable
Bit rate                                 : 96.0 Kbps
Maximum bit rate                         : 102 Kbps
Channel(s)                               : 2 channels
Channel positions                        : Front: L R
Sampling rate                            : 44.1 KHz
Compression mode                         : Lossy
Stream size                              : 66.4 MiB (19%)
Title                                    : IsoMedia File Produced by Google, 5-11-2011
Encoded date                             : UTC 2013-06-24 09:55:50
Tagged date                              : UTC 2013-06-24 09:56:50


Contraseña / Password:
Código:
peliculastomas01


Descargar / Download:


FreakShare | uploadable | FireDriver(PutLocker)

Código:
http://goo.gl/7Wewxw

Notas:
----------------------------------------------------------------------------------------------------
-Si tienes problemas con el sonido reportamelo por MP, Ya le tengo solucion.
-Si algun enlace o link se cae, no lo avises comentando, hazlo por MP o por el reporte de links, asi me doy cuenta rapido.
-Verifica si he resubido los links aveces no lo comento en el foro, solo lo digo por el contenedor de links.
-Por favor, les pido que comenten sobre la calidad o sonido de la peli, asi los demas sabran lo que descargan.


----------------------------------------------------------------------------------------------------

Responder
Thanks given by:


Posibles temas similares...
Tema Autor Respuestas Vistas Último mensaje
  Las ratas del desierto [1953] [DVDRip] [Castellano] [Bélico IIGM] Blade Master 666 0 27 04-28-2017, 03:24 AM
Último mensaje: Blade Master 666
  Infierno en la bahía de San Francisco [1955] [DVDRip] [DUAL ES IN] [Thriller Drama] Blade Master 666 0 13 04-28-2017, 03:21 AM
Último mensaje: Blade Master 666
Video Turbo [2013][3D H-SBS 1080p][Ing-Lat] profito 0 8 04-28-2017, 02:45 AM
Último mensaje: profito
Video The Lion King III [2004][FullHD 1080][Ing-Lat] profito 0 5 04-27-2017, 11:28 PM
Último mensaje: profito



Usuarios navegando en este tema: 1 invitado(s)

Powered By MyBB, © 2002-2017 MyBB Group.