Calificación:
  • 0 voto(s) - 0 Media
  • 1
  • 2
  • 3
  • 4
  • 5

[-]
Etiquetas
accion link fd dvd castellano 1 la speed 2014 for screener pelicula need

Need For Speed, La pelicula (2014) [DVD Screener/Castellano] [Accion] [1 Link] [FD]

#1
Video 

Sinopsis / Synopsis:
La película narra la historia de Tobey Marshall (Aaron Paul), un mecánico que pilota muscle cars (coches clásicos de gran cilindrada) en un circuito de carreras ilegal callejero. Necesitado de medios para mantener a flote su taller familiar, acepta a regañadientes asociarse con el adinerado y arrogante ex piloto de NASCAR Dino Brewster (Dominic Cooper). Pero justo cuando está a punto de salvar su taller mediante un gran trato con la vendedora de automóviles Julia Bonet (Imogen Poots), una desastrosa carrera permite a Dino meter a Tobey en la cárcel por un crimen que no ha cometido, lo que deja a Brewster libre para ampliar sus negocios hacia el oeste.

Dos años más tarde, Tobey sale de la cárcel dispuesto a vengarse, pero sabe que su única oportunidad para acabar con Dino es derrotarle en la arriesgada carrera conocida como De Leon, la Liga de Campeones de las carreras clandestinas. Sin embargo, para llegar allí a tiempo, Tobey deberá poner toda la carne en el asador en una frenética carrera de costa a costa en la que deberá dar esquinazo a la policía y lidiar con la exorbitante recompensa que Dino ha puesto por su coche. Con la ayuda de su leal equipo y de la sorprendente baza que resulta ser Julia, Tobey desafía el peligro en cada recodo para demostrar que incluso en el deslumbrante mundo de los supercoches exóticos, el que lleva las de perder también puede llegar primero.

Ficha Técnica / Technical details:
Título original: Need For Speed
Título: Need For Speed, La pelicula
Año: 2014
Duración: 130 min.
País: Estados Unidos
Director: Scott Waugh
Guión: George Gatins, John Gatins, George Nolfi
Música: Nathan Furst
Fotografía: Shane Hurlbut
Reparto: Aaron Paul, Dominic Cooper, Scott Mescudi, Dakota Johnson, Rami Malek, Nick Chinlund, Ramon Rodriguez, Kid Cudi, Han Soto, Carmela Zumbado
Productora: Electronic Arts / DreamWorks SKG / Reliance Entertainment / Bandito Brothers
Género: Acción | Coches / Automovilismo. Venganza. Videojuego. 3-D
Estreno en USA: 14/03/2014
Estreno en España: 04/04/2014

Trailer:




Datos Técnicos / Technical Data:
DVD Screener | AVI | 783 MB | 720x288 | Castellano

Mira los primeros 3 minutos de la peli, antes de descargarla:
Código:
http://played.to/yt54j5h49ey6

Capturas / Screenshots:


Mediainfo:
Código:
General
Complete name                            : N4SPED. DVDSCR.Castellano(peliculastomas01).avi
Format                                   : MPEG-4
Format profile                           : Base Media
Codec ID                                 : isom
File size                                : 783 MiB
Duration                                 : 2h 10mn
Overall bit rate mode                    : Variable
Overall bit rate                         : 839 Kbps
Writing application                      : Lavf54.63.104

Video
ID                                       : 1
Format                                   : AVC
Format/Info                              : Advanced Video Codec
Format profile                           : High@L3.0
Format settings, CABAC                   : Yes
Format settings, ReFrames                : 4 frames
Codec ID                                 : avc1
Codec ID/Info                            : Advanced Video Coding
Duration                                 : 2h 10mn
Bit rate                                 : 750 Kbps
Width                                    : 720 pixels
Height                                   : 288 pixels
Display aspect ratio                     : 2.500
Frame rate mode                          : Constant
Frame rate                               : 29.970 fps
Color space                              : YUV
Chroma subsampling                       : 4:2:0
Bit depth                                : 8 bits
Scan type                                : Progressive
Bits/(Pixel*Frame)                       : 0.121
Stream size                              : 700 MiB (89%)
Writing library                          : x264 core 120 r2151 a3f4407
Encoding settings                        : cabac=1 / ref=3 / deblock=1:0:0 / analyse=0x3:0x113 / me=hex / subme=7 / psy=1 / psy_rd=1.00:0.00 / mixed_ref=1 / me_range=16 / chroma_me=1 / trellis=1 / 8x8dct=1 / cqm=0 / deadzone=21,11 / fast_pskip=1 / chroma_qp_offset=-2 / threads=16 / sliced_threads=0 / nr=0 / decimate=1 / interlaced=0 / bluray_compat=0 / constrained_intra=0 / bframes=3 / b_pyramid=2 / b_adapt=1 / b_bias=0 / direct=1 / weightb=1 / open_gop=0 / weightp=2 / keyint=25 / keyint_min=2 / scenecut=40 / intra_refresh=0 / rc_lookahead=25 / rc=abr / mbtree=1 / bitrate=750 / ratetol=1.0 / qcomp=0.60 / qpmin=0 / qpmax=69 / qpstep=4 / ip_ratio=1.40 / aq=1:1.00

Audio
ID                                       : 2
Format                                   : AAC
Format/Info                              : Advanced Audio Codec
Format profile                           : LC
Codec ID                                 : 40
Duration                                 : 2h 10mn
Duration_LastFrame                       : -19ms
Bit rate mode                            : Variable
Bit rate                                 : 82.8 Kbps
Maximum bit rate                         : 128 Kbps
Channel(s)                               : 2 channels
Channel positions                        : Front: L R
Sampling rate                            : 24.0 KHz
Compression mode                         : Lossy
Stream size                              : 77.3 MiB (10%)


Contraseña / Password:
Código:
peliculastomas01


Descargar Gratis / Download Free:


FreakShare | uploadable | FireDriver(PutLocker)

Código:
http://goo.gl/KepBH7

Notas:
----------------------------------------------------------------------------------------------------
-Si tienes problemas con el sonido reportamelo por MP, Ya le tengo solucion.
-Si algun enlace o link se cae, no lo avises comentando, hazlo por MP o por el reporte de links, asi me doy cuenta rapido.
-Verifica si he resubido los links aveces no lo comento en el foro, solo lo digo por el contenedor de links.
-Por favor, les pido que comenten sobre la calidad o sonido de la peli, asi los demas sabran lo que descargan.

----------------------------------------------------------------------------------------------------

Responder
Thanks given by:


Posibles temas similares...
Tema Autor Respuestas Vistas Último mensaje
  Las ratas del desierto [1953] [DVDRip] [Castellano] [Bélico IIGM] Blade Master 666 0 28 04-28-2017, 03:24 AM
Último mensaje: Blade Master 666
  Infierno en la bahía de San Francisco [1955] [DVDRip] [DUAL ES IN] [Thriller Drama] Blade Master 666 0 14 04-28-2017, 03:21 AM
Último mensaje: Blade Master 666
Video Turbo [2013][3D H-SBS 1080p][Ing-Lat] profito 0 8 04-28-2017, 02:45 AM
Último mensaje: profito
Video The Lion King III [2004][FullHD 1080][Ing-Lat] profito 0 5 04-27-2017, 11:28 PM
Último mensaje: profito



Usuarios navegando en este tema: 1 invitado(s)

Powered By MyBB, © 2002-2017 MyBB Group.