Calificación:
  • 1 voto(s) - 4 Media
  • 1
  • 2
  • 3
  • 4
  • 5

[-]
Etiquetas
hq pl link ts castellano 1 la speed 2014 for screener pelicula need acción

Need For Speed, La pelicula (2014) [TS Screener HQ/Castellano] [Acción] [1 Link] [PL]

#1
Video 

Sinopsis / Synopsis:
La película narra la historia de Tobey Marshall (Aaron Paul), un mecánico que pilota muscle cars (coches clásicos de gran cilindrada) en un circuito de carreras ilegal callejero. Necesitado de medios para mantener a flote su taller familiar, acepta a regañadientes asociarse con el adinerado y arrogante ex piloto de NASCAR Dino Brewster (Dominic Cooper). Pero justo cuando está a punto de salvar su taller mediante un gran trato con la vendedora de automóviles Julia Bonet (Imogen Poots), una desastrosa carrera permite a Dino meter a Tobey en la cárcel por un crimen que no ha cometido, lo que deja a Brewster libre para ampliar sus negocios hacia el oeste.

Dos años más tarde, Tobey sale de la cárcel dispuesto a vengarse, pero sabe que su única oportunidad para acabar con Dino es derrotarle en la arriesgada carrera conocida como De Leon, la Liga de Campeones de las carreras clandestinas. Sin embargo, para llegar allí a tiempo, Tobey deberá poner toda la carne en el asador en una frenética carrera de costa a costa en la que deberá dar esquinazo a la policía y lidiar con la exorbitante recompensa que Dino ha puesto por su coche. Con la ayuda de su leal equipo y de la sorprendente baza que resulta ser Julia, Tobey desafía el peligro en cada recodo para demostrar que incluso en el deslumbrante mundo de los supercoches exóticos, el que lleva las de perder también puede llegar primero.

Ficha Técnica / Technical details:
Título original: Need For Speed
Título: Need For Speed, La pelicula
Año: 2014
Duración: 130 min.
País: Estados Unidos
Director: Scott Waugh
Guión: George Gatins, John Gatins, George Nolfi
Música: Nathan Furst
Fotografía: Shane Hurlbut
Reparto: Aaron Paul, Dominic Cooper, Scott Mescudi, Dakota Johnson, Rami Malek, Nick Chinlund, Ramon Rodriguez, Kid Cudi, Han Soto, Carmela Zumbado
Productora: Electronic Arts / DreamWorks SKG / Reliance Entertainment / Bandito Brothers
Género: Acción | Coches / Automovilismo. Venganza. Videojuego. 3-D
Estreno en USA: 14/03/2014
Estreno en España: 04/04/2014

Trailer:




Mira los primeros 3 minutos de la peli, antes de descargarla:
Código:
http://played.to/qcaqg3ewhchs

Datos Técnicos / Technical Data:
TS Screener HQ | AVI | 962 MB | 720x362 | Castellano

Capturas / Screenshots:


Mediainfo:
Código:
General
Complete name                            : NEED.FOR.SPEED.TSHQ.Castellano(peliculastomas01).avi
Format                                   : AVI
Format/Info                              : Audio Video Interleave
File size                                : 963 MiB
Duration                                 : 2h 1mn
Overall bit rate                         : 1 105 Kbps
Writing application                      : VirtualDubMod 1.5.10.2 (build 2540/release)
Writing library                          : VirtualDubMod build 2540/release

Video
ID                                       : 0
Format                                   : MPEG-4 Visual
Format profile                           : Simple@L1
Format settings, BVOP                    : No
Format settings, QPel                    : No
Format settings, GMC                     : No warppoints
Format settings, Matrix                  : Default (H.263)
Codec ID                                 : FMP4
Duration                                 : 2h 1mn
Bit rate                                 : 903 Kbps
Width                                    : 720 pixels
Height                                   : 362 pixels
Display aspect ratio                     : 1.989
Frame rate                               : 23.976 fps
Color space                              : YUV
Chroma subsampling                       : 4:2:0
Bit depth                                : 8 bits
Scan type                                : Progressive
Compression mode                         : Lossy
Bits/(Pixel*Frame)                       : 0.145
Stream size                              : 787 MiB (82%)
Writing library                          : Lavc52.97.0

Audio
ID                                       : 1
Format                                   : MPEG Audio
Format version                           : Version 1
Format profile                           : Layer 3
Codec ID                                 : 55
Codec ID/Hint                            : MP3
Duration                                 : 2h 1mn
Bit rate mode                            : Constant
Bit rate                                 : 192 Kbps
Channel(s)                               : 2 channels
Sampling rate                            : 44.1 KHz
Compression mode                         : Lossy
Stream size                              : 167 MiB (17%)
Alignment                                : Split accross interleaves
Interleave, duration                     : 42 ms (1.00 video frame)
Interleave, preload duration             : 500 ms

Contraseña / Password:
Código:
peliculastomas01

Descargar Gratis / Download Free:

FreakShare | uploadable | FireDriver(PutLocker)

Código:
http://goo.gl/vwVSsj

Notas:
----------------------------------------------------------------------------------------------------
-Si tienes problemas con el sonido reportamelo por MP, Ya le tengo solucion.
-Si algun enlace o link se cae, no lo avises comentando, hazlo por MP o por el reporte de links, asi me doy cuenta rapido.
-Verifica si he resubido los links aveces no lo comento en el foro, solo lo digo por el contenedor de links.
-Por favor, les pido que comenten sobre la calidad o sonido de la peli, asi los demas sabran lo que descargan.


----------------------------------------------------------------------------------------------------

Responder
Thanks given by:


Posibles temas similares...
Tema Autor Respuestas Vistas Último mensaje
Video Jason Bourne HD1080p Lat-Cast-Ing 5.1 (2016) dvdriplat 0 11 7 horas
Último mensaje: dvdriplat
Video Jason Bourne HD720p Lat-Cast-Ing 5.1 (2016) dvdriplat 0 9 7 horas
Último mensaje: dvdriplat
Video Fantastic Beasts and Where to Find Them [2016][3D H-SBS 1080p][Ing-Lat] profito 0 8 11 horas
Último mensaje: profito
  El halcón maltés [1941] [HDRIP] [DUAL ES IN] ][Cine Negro] Blade Master 666 0 4 Hoy, 12:58 AM
Último mensaje: Blade Master 666



Usuarios navegando en este tema: 1 invitado(s)

Powered By MyBB, © 2002-2017 MyBB Group.