Calificación:
  • 0 voto(s) - 0 Media
  • 1
  • 2
  • 3
  • 4
  • 5

[-]
Etiquetas
hq pl link noah ts subtitulado 1 drama 2014 screener

Noah (2014) [TS Screener HQ/Subtitulado] [Drama] [1 Link] [PL]

#1
Video 

Sinopsis / Synopsis:
En un mundo asolado por los pecados humanos, Noé, un hombre pacífico que sólo desea vivir tranquilo con su familia, recibe una misión divina: construir un Arca para salvar a la creación del inminente diluvio. Todo comienza cuando, cada noche, Noé tiene el mismo sueño: las visiones de muerte provocada por el agua, seguidas de nueva vida en la Tierra.

Ficha Técnica / Technical details:
Título original: Noah
Año: 2014
Duración: 138 min.
País: Estados Unidos
Director: Darren Aronofsky
Guión: Darren Aronofsky, Ari Handel
Música: Clint Mansell
Fotografía: Matthew Libatique
Reparto: Russell Crowe, Jennifer Connelly, Emma Watson, Anthony Hopkins, Ray Winstone, Logan Lerman, Marton Csokas, Dakota Goyo, Douglas Booth
Productora: Paramount Pictures / New Regency
Género: Aventuras. Drama. Fantástico | Biblia. Religión. Cine épico. Catástrofes
Estreno en USA: 28/03/2014
Estreno en España: 04/04/2014

Trailer:




Mira los primeros 3 minutos de la peli, antes de descargarla:
Código:
http://played.to/z9403g2r4g0g

Datos Técnicos / Technical Data:
TS Screener HQ | AVI | 1.41 GB | 864x480 | Sub Español

Capturas / Screenshots:


Mediainfo:
Código:
General
Complete name                            : Noah_TSHQSub(peliculastomas01).avi
Format                                   : AVI
Format/Info                              : Audio Video Interleave
Format profile                           : OpenDML
File size                                : 1.41 GiB
Duration                                 : 2h 2mn
Overall bit rate                         : 1 654 Kbps
Writing application                      : Lavf52.84.0

Video
ID                                       : 0
Format                                   : MPEG-4 Visual
Codec ID                                 : FMP4
Duration                                 : 2h 2mn
Bit rate                                 : 1 511 Kbps
Width                                    : 864 pixels
Height                                   : 480 pixels
Display aspect ratio                     : 16:9
Frame rate                               : 29.970 fps
Color space                              : YUV
Chroma subsampling                       : 4:2:0
Compression mode                         : Lossy
Bits/(Pixel*Frame)                       : 0.122
Stream size                              : 1.29 GiB (91%)

Audio
ID                                       : 1
Format                                   : MPEG Audio
Format version                           : Version 1
Format profile                           : Layer 3
Mode                                     : Joint stereo
Mode extension                           : MS Stereo
Codec ID                                 : 55
Codec ID/Hint                            : MP3
Duration                                 : 2h 2mn
Bit rate mode                            : Constant
Bit rate                                 : 128 Kbps
Channel(s)                               : 2 channels
Sampling rate                            : 48.0 KHz
Compression mode                         : Lossy
Stream size                              : 112 MiB (8%)
Alignment                                : Aligned on interleaves
Interleave, duration                     : 24 ms (0.72 video frame)

Contraseña / Password:
Código:
peliculastomas01

Descargar Gratis / Download Free:

FreakShare | uploadable | FireDriver(PutLocker)

Código:
http://goo.gl/QHHbcg

Notas:
----------------------------------------------------------------------------------------------------
-Si tienes problemas con el sonido reportamelo por MP, Ya le tengo solucion.
-Si algun enlace o link se cae, no lo avises comentando, hazlo por MP o por el reporte de links, asi me doy cuenta rapido.
-Verifica si he resubido los links aveces no lo comento en el foro, solo lo digo por el contenedor de links.
-Por favor, les pido que comenten sobre la calidad o sonido de la peli, asi los demas sabran lo que descargan.


----------------------------------------------------------------------------------------------------

Responder
Thanks given by:


Posibles temas similares...
Tema Autor Respuestas Vistas Último mensaje
  El velo pintado [1934] [DVDRip] [DUAL ES IN] [Romance Drama] Blade Master 666 0 9 10 horas
Último mensaje: Blade Master 666
  Moby Dick [1956] [HDRIP] [DUAL ES IN] [Aventuras Drama] Blade Master 666 0 7 10 horas
Último mensaje: Blade Master 666
Video Hotel Transylvania 2 [2015][3D H-SBS 1080p][Ing-Lat] profito 0 8 Ayer, 10:12 PM
Último mensaje: profito
Video Hotel Transylvania [2012][3D H-SBS 1080p][Ing-Lat] profito 0 8 Ayer, 10:03 PM
Último mensaje: profito



Usuarios navegando en este tema: 1 invitado(s)

Powered By MyBB, © 2002-2017 MyBB Group.