Calificación:
  • 0 voto(s) - 0 Media
  • 1
  • 2
  • 3
  • 4
  • 5

[-]
Etiquetas
non accion link fd dvd sin escalas castellano 1 2014 screener r5 stop

Non-Stop(Sin escalas) (2014) [DVD Screener.R5/Castellano] [Accion] [1 Link] [FD]

#1
Video 

Sinopsis / Synopsis:
Bill Marks (Liam Neeson), un veterano agente del servicio aéreo de los Marshalls, se siente bastante quemado tanto con el mundo como con su profesión: no entiende su labor como un deber para salvaguardar vidas, sino como un rutinario trabajo de oficina a bordo de un avión. Sin embargo, un día, en un viaje trasatlántico de Nueva York a Londres recibe una serie de misteriosos mensajes de texto, en los que se le pide que inste al gobierno a hacer una transferencia de 150 millones de dólares a una cuenta secreta, pues, en caso contrario, un pasajero moriría cada 20 minutos. El juego del gato y el ratón se desarrollado a 40.000 pies de altura y con la vida de 200 pasajeros pendiente de un hilo.

Ficha Técnica / Technical details:
Título original: Non-Stop
Título : Sin escalas
Año: 2014
Duración: 106 min.
País: Estados Unidos
Director: Jaume Collet-Serra
Guión: Christopher Roach, John W. Richardson, Ryan Engle
Música: John Ottman
Fotografía: Flavio Martínez Labiano
Reparto: Liam Neeson, Julianne Moore, Michelle Dockery, Anson Mount, Scoot McNairy, Bar Paly, Lupita Nyong'o, Corey Stoll, Linus Roache, Jon Abrahams
Productora: Silver Pictures / StudioCanal
Género: Acción. Thriller | Terrorismo. Aviones
Estreno en USA: 28/02/2014
Estreno en España: 21/03/2014

Trailer:




Datos Técnicos / Technical Data:
DVD Screener.R5 | AVI | 1.37 GB | 720x304 | Castellano

Mira los primeros 3 minutos de la peli, antes de descargarla:
Código:
http://played.to/cgxjaq3ivkp1

Capturas / Screenshots:


Mediainfo:
Código:
General
Complete name                            : Sin.escalas.Non.Stop.R5.SCR.Castellano(peliculastomas01).avi
Format                                   : AVI
Format/Info                              : Audio Video Interleave
File size                                : 1.37 GiB
Duration                                 : 1h 45mn
Overall bit rate                         : 1 853 Kbps
Writing application                      : VirtualDubMod 1.5.10.2 (build 2540/release)
Writing library                          : VirtualDubMod build 2540/release

Video
ID                                       : 0
Format                                   : MPEG-4 Visual
Format profile                           : Advanced Simple@L5
Format settings, BVOP                    : 2
Format settings, QPel                    : No
Format settings, GMC                     : No warppoints
Format settings, Matrix                  : Default (H.263)
Codec ID                                 : XVID
Codec ID/Hint                            : XviD
Duration                                 : 1h 45mn
Bit rate                                 : 1 649 Kbps
Width                                    : 720 pixels
Height                                   : 304 pixels
Display aspect ratio                     : 2.35:1
Frame rate                               : 29.970 fps
Color space                              : YUV
Chroma subsampling                       : 4:2:0
Bit depth                                : 8 bits
Scan type                                : Progressive
Compression mode                         : Lossy
Bits/(Pixel*Frame)                       : 0.251
Stream size                              : 1.22 GiB (89%)
Writing library                          : XviD 73

Audio
ID                                       : 1
Format                                   : MPEG Audio
Format version                           : Version 1
Format profile                           : Layer 3
Codec ID                                 : 55
Codec ID/Hint                            : MP3
Duration                                 : 1h 45mn
Bit rate mode                            : Constant
Bit rate                                 : 192 Kbps
Channel(s)                               : 2 channels
Sampling rate                            : 44.1 KHz
Compression mode                         : Lossy
Stream size                              : 145 MiB (10%)
Alignment                                : Split accross interleaves
Interleave, duration                     : 33 ms (1.00 video frame)
Interleave, preload duration             : 500 ms


Contraseña / Password:
Código:
peliculastomas01


Descargar Gratis / Download Free:


FreakShare | uploadable | FireDriver(PutLocker)

Código:
http://goo.gl/pr2LsO

Notas:
----------------------------------------------------------------------------------------------------
-Si tienes problemas con el sonido reportamelo por MP, Ya le tengo solucion.
-Si algun enlace o link se cae, no lo avises comentando, hazlo por MP o por el reporte de links, asi me doy cuenta rapido.
-Verifica si he resubido los links aveces no lo comento en el foro, solo lo digo por el contenedor de links.
-Por favor, les pido que comenten sobre la calidad o sonido de la peli, asi los demas sabran lo que descargan.

----------------------------------------------------------------------------------------------------

Responder
Thanks given by:


Posibles temas similares...
Tema Autor Respuestas Vistas Último mensaje
Video Ultravioleta HD1080p Lat-Cast-Ing 5.1 (2006) dvdriplat 0 5 8 horas
Último mensaje: dvdriplat
Video Ultravioleta HD720p Lat-Cast-Ing 5.1 (2006) dvdriplat 0 4 9 horas
Último mensaje: dvdriplat
Video El Regreso De La Mosca HD1080p Lat-Cast-Ing 2.0 (1959) dvdriplat 0 7 Hoy, 05:13 AM
Último mensaje: dvdriplat
Video El Regreso De La Mosca HD720p Lat-Cast-Ing 2.0 (1959) dvdriplat 0 6 Hoy, 05:05 AM
Último mensaje: dvdriplat



Usuarios navegando en este tema: 1 invitado(s)

Powered By MyBB, © 2002-2017 MyBB Group.