Calificación:
  • 0 voto(s) - 0 Media
  • 1
  • 2
  • 3
  • 4
  • 5

[-]
Etiquetas
latino link fd novato apuros 1080phd en 1 2014 acción

Novato en apuros (2014) [1080pHD/Latino] [Acción] [1 Link] [FD]

#1
Video 

Sinopsis / Synopsis:
La trama de la película gira en torno a Ben (Kevin Hart) un vigilante de seguridad de una escuela se secundaria que tiene un propósito: casarse con Ángela (Tika Sumpter) la mujer de su vida. Sus planes se ven truncados cuando se da cuenta de que tiene que conseguir la aprobación de James (Ice Cube), el sobreprotector hermano de Ángela, un agente condecorado del departamento de policía de Atlanta.

Para demostrar su valentía Ben decide unirse al departamento de su cuñado, y aunque ha conseguido superar las pruebas, todavía tendrá que pasar la prueba más dura: deberá acompañar a James en una patrulla de 24 horas por los suburbios de la cuidad.

Ficha Técnica / Technical details:
Título original: Ride Along
Título: Novato en apuros
Año: 2014
Duración: 100 min.
País: Estados Unidos
Director: Tim Story
Guión: Phil Hay, Greg Coolidge, Matt Manfredi, Jason Mantzoukas
Música: Christopher Lennertz
Fotografía: Larry Blanford
Reparto: Ice Cube, Kevin Hart, Tika Sumpter, John Leguizamo, Gary Weeks, Bruce McGill, Bryan Callen, Gary Owen, Lucius Baston, Gary Weeks, Julisita Salcedo, Jay Pharoah, Dragos Bucur, Aaron Saxton, Kenny Alfonso, John Kap
Productora: Cube Vision / LBI Entertainment / Rainforest Films
Género: Acción. Comedia | Buddy Film

Trailer:




Datos Técnicos / Technical Data:
1080pHD | MKV | 1.84 GB | 1920x800 | Español Latino

Capturas / Screenshots:


Mediainfo:
Código:
General
Unique ID                                : 181909781975679156832399405666173888377 (0x88DA8CB4723DFF71911E247EE312A779)
Complete name                            : Novato En Apuros.1080p.Latino(peliculastomas01).mkv
Format                                   : Matroska
Format version                           : Version 2
File size                                : 1.84 GiB
Duration                                 : 1h 39mn
Overall bit rate                         : 2 649 Kbps
Encoded date                             : UTC 2014-04-11 07:21:56
Writing application                      : mkvmerge v3.4.0 ('Rapunzel') built on May 15 2010 09:38:20
Writing library                          : libebml v0.8.0 + libmatroska v0.9.0

Video
ID                                       : 1
Format                                   : AVC
Format/Info                              : Advanced Video Codec
Format profile                           : High@L4.1
Format settings, CABAC                   : Yes
Format settings, ReFrames                : 5 frames
Codec ID                                 : V_MPEG4/ISO/AVC
Duration                                 : 1h 39mn
Bit rate                                 : 2 200 Kbps
Width                                    : 1 920 pixels
Height                                   : 800 pixels
Display aspect ratio                     : 2.40:1
Frame rate                               : 23.976 fps
Color space                              : YUV
Chroma subsampling                       : 4:2:0
Bit depth                                : 8 bits
Scan type                                : Progressive
Bits/(Pixel*Frame)                       : 0.060
Stream size                              : 1.50 GiB (81%)
Writing library                          : x264 core 138 r2358 9e941d1
Encoding settings                        : cabac=1 / ref=5 / deblock=1:1:1 / analyse=0x3:0x113 / me=hex / subme=7 / psy=1 / psy_rd=0.40:0.00 / mixed_ref=1 / me_range=16 / chroma_me=1 / trellis=1 / 8x8dct=1 / cqm=0 / deadzone=21,11 / fast_pskip=1 / chroma_qp_offset=-2 / threads=18 / lookahead_threads=3 / sliced_threads=0 / nr=0 / decimate=1 / interlaced=0 / bluray_compat=0 / constrained_intra=0 / bframes=4 / b_pyramid=2 / b_adapt=1 / b_bias=0 / direct=1 / weightb=0 / open_gop=0 / weightp=2 / keyint=250 / keyint_min=23 / scenecut=40 / intra_refresh=0 / rc_lookahead=40 / rc=2pass / mbtree=1 / bitrate=2200 / ratetol=1.0 / qcomp=0.60 / qpmin=0 / qpmax=69 / qpstep=4 / cplxblur=20.0 / qblur=0.5 / ip_ratio=1.40 / aq=1:0.60
Language                                 : Spanish
Default                                  : No
Forced                                   : No

Audio
ID                                       : 2
Format                                   : AC-3
Format/Info                              : Audio Coding 3
Mode extension                           : CM (complete main)
Codec ID                                 : A_AC3
Duration                                 : 1h 39mn
Bit rate mode                            : Constant
Bit rate                                 : 448 Kbps
Channel(s)                               : 6 channels
Channel positions                        : Front: L C R, Side: L R, LFE
Sampling rate                            : 48.0 KHz
Bit depth                                : 16 bits
Compression mode                         : Lossy
Stream size                              : 319 MiB (17%)
Language                                 : Spanish
Default                                  : Yes
Forced                                   : No

Text
ID                                       : 3
Format                                   : UTF-8
Codec ID                                 : S_TEXT/UTF8
Codec ID/Info                            : UTF-8 Plain Text
Language                                 : Spanish
Default                                  : Yes
Forced                                   : No


Contraseña / Password:
Código:
peliculastomas01


Descargar Gratis / Download Free:


FreakShare | uploadable | FireDriver(PutLocker)

Código:
http://gpaste.us/5526af4c

Notas:
----------------------------------------------------------------------------------------------------
-Si tienes problemas con el sonido reportamelo por MP, Ya le tengo solucion.
-Si algun enlace o link se cae, no lo avises comentando, hazlo por MP o por el reporte de links, asi me doy cuenta rapido.
-Verifica si he resubido los links aveces no lo comento en el foro, solo lo digo por el contenedor de links.
-Por favor, les pido que comenten sobre la calidad o sonido de la peli, asi los demas sabran lo que descargan.

----------------------------------------------------------------------------------------------------

Responder
Thanks given by:


Posibles temas similares...
Tema Autor Respuestas Vistas Último mensaje
  Las ratas del desierto [1953] [DVDRip] [Castellano] [Bélico IIGM] Blade Master 666 0 27 04-28-2017, 03:24 AM
Último mensaje: Blade Master 666
  Infierno en la bahía de San Francisco [1955] [DVDRip] [DUAL ES IN] [Thriller Drama] Blade Master 666 0 13 04-28-2017, 03:21 AM
Último mensaje: Blade Master 666
Video Turbo [2013][3D H-SBS 1080p][Ing-Lat] profito 0 8 04-28-2017, 02:45 AM
Último mensaje: profito
Video The Lion King III [2004][FullHD 1080][Ing-Lat] profito 0 5 04-27-2017, 11:28 PM
Último mensaje: profito



Usuarios navegando en este tema: 1 invitado(s)

Powered By MyBB, © 2002-2017 MyBB Group.