Calificación:
  • 0 voto(s) - 0 Media
  • 1
  • 2
  • 3
  • 4
  • 5

[-]
Etiquetas
hq pl link ts subtitulado pompeii 1 2014 aventura screener

Pompeii (2014) [TS Screener HQ/Subtitulado] [Aventura] [1 Link] [PL]

#1
Video 

Sinopsis / Synopsis:
Este thriller dramático cuya historia transcurre durante y antes de la erupción del volcán Vesuvio contará la historia de un joven esclavo de un magnate naviero que sueña con comprar su libertad, Milo (Harington), quien luchará contra la tragedia para proteger a la mujer que ama (a su vez la hija de su amo) de la catástrofe. Lo que Milo no sabe es que su amada ya ha sido prometida a un senador romano corrupto, mientras que él ha sido vendido a otro propietario en Nápoles. Justo cuando las cosas no pueden ir peor, el volcán entra en erupción provocando que Milo pueda regresar a Pompeya para rescatar a su amor y también a su mejor amigo, un gladiador que está atrapado en el coliseo de la ciudad. En medio de este dilema, se ve inmerso en un conflicto político.

Ficha Técnica / Technical details:
Título original: Pompeii (Pompei)
Año: 2014
Duración: 102 min.
País: Estados Unidos
Director: Paul W.S. Anderson
Guión: Janet Scott Batchler, Lee Batchler, Julian Fellowes, Michael Robert Johnson
Música: Clinton Shorter
Fotografía: Glen MacPherson
Reparto: Kit Harington, Emily Browning, Jared Harris, Kiefer Sutherland, Carrie-Anne Moss, Paz Vega, Jessica Lucas, Sasha Roiz, Currie Graham, Joe Pingue
Productora: TriStar / FilmDistrict / Constantin Film / Don Carmody Productions
Género: Aventuras. Drama | Antigua Roma. Histórico. Catástrofes. 3-D
Estreno en USA: 21/02/2014
Estreno en España: 25/04/2014

Trailer:




Mira los primeros 3 minutos de la peli, antes de descargarla:
Código:
http://played.to/ntt80s705bx4

Datos Técnicos / Technical Data:
TS Screener HQ | AVI | 997 MB | 720x304 | Sub Español

Capturas / Screenshots:


Mediainfo:
Código:
General
Complete name                            : Pompei.TSHQ.VOSE(peliculastomas01).avi
Format                                   : AVI
Format/Info                              : Audio Video Interleave
File size                                : 997 MiB
Duration                                 : 1h 40mn
Overall bit rate                         : 1 392 Kbps
Writing application                      : Lavf52.84.0

Video
ID                                       : 0
Format                                   : MPEG-4 Visual
Format profile                           : Simple@L1
Format settings, BVOP                    : No
Format settings, QPel                    : No
Format settings, GMC                     : No warppoints
Format settings, Matrix                  : Default (H.263)
Codec ID                                 : XVID
Codec ID/Hint                            : XviD
Duration                                 : 1h 40mn
Bit rate                                 : 1 252 Kbps
Width                                    : 720 pixels
Height                                   : 304 pixels
Display aspect ratio                     : 2.35:1
Frame rate                               : 29.970 fps
Color space                              : YUV
Chroma subsampling                       : 4:2:0
Bit depth                                : 8 bits
Scan type                                : Progressive
Compression mode                         : Lossy
Bits/(Pixel*Frame)                       : 0.191
Stream size                              : 897 MiB (90%)
Writing library                          : Lavc52.97.0

Audio
ID                                       : 1
Format                                   : MPEG Audio
Format version                           : Version 1
Format profile                           : Layer 3
Mode                                     : Joint stereo
Mode extension                           : MS Stereo
Codec ID                                 : 55
Codec ID/Hint                            : MP3
Duration                                 : 1h 38mn
Bit rate mode                            : Constant
Bit rate                                 : 128 Kbps
Channel(s)                               : 2 channels
Sampling rate                            : 48.0 KHz
Compression mode                         : Lossy
Stream size                              : 90.5 MiB (9%)
Alignment                                : Aligned on interleaves
Interleave, duration                     : 24 ms (0.73 video frame)
Interleave, preload duration             : 24 ms

Contraseña / Password:
Código:
peliculastomas01

Descargar Gratis / Download Free:

FreakShare | uploadable | FireDriver(PutLocker)

Código:
http://goo.gl/1RZLcb

Notas:
----------------------------------------------------------------------------------------------------
-Si tienes problemas con el sonido reportamelo por MP, Ya le tengo solucion.
-Si algun enlace o link se cae, no lo avises comentando, hazlo por MP o por el reporte de links, asi me doy cuenta rapido.
-Verifica si he resubido los links aveces no lo comento en el foro, solo lo digo por el contenedor de links.
-Por favor, les pido que comenten sobre la calidad o sonido de la peli, asi los demas sabran lo que descargan.


----------------------------------------------------------------------------------------------------

Responder
Thanks given by:


Posibles temas similares...
Tema Autor Respuestas Vistas Último mensaje
  El lazarillo de Tormes (Sin censura) [1959] [DVBRIP] [Castellano] [Drama Comedia] Blade Master 666 0 4 2 horas
Último mensaje: Blade Master 666
  Siete ladrones [1960] [DVDRip] [DUAL ES IN] [Drama Robos Atracos] Blade Master 666 0 4 2 horas
Último mensaje: Blade Master 666
Video The Hobbit An Unexpected Journey [2012][3D H-SBS 1080p][Ing-Lat] profito 0 3 3 horas
Último mensaje: profito
  La autopsia de Jane Doe (2016)(HDRip)(Ingles/Subtitulada)(Terror)(BDupload) kz8307 0 4 4 horas
Último mensaje: kz8307



Usuarios navegando en este tema: 1 invitado(s)

Powered By MyBB, © 2002-2017 MyBB Group.