Calificación:
  • 0 voto(s) - 0 Media
  • 1
  • 2
  • 3
  • 4
  • 5

[-]
Etiquetas
demoledor ralph latino 2012 link fd animación el 1 dvdrip

Ralph El Demoledor (2012) [DVDRip/Latino] [Animación] [1 Link] [FD]

#1
Video 

Subida por pedido

Sinopsis / Synopsis:
Una película en la que descubriremos como es la vida de los personajes de los videojuegos, cuando su jornada laboral se terminas y las máquinas recreativas se apagan.
El protagonista de esta historia es Ralph, uno de los personajes principales del juego Wreck-It Ralph, cuyo cometido, es el de romper los diferentes escenario que aparecen en cada nivel. Cansado de realizar durante treinta años una labor a la que nadie parece darle demasiada importancia, cree que ha llegado el momento de demostrarle al mundo que él es algo más que un malvado personaje que destroza todo a su paso.
Para lograr su objetivo, se introducirá en Hero Duty, un nuevo videojuego de temática futurista, en el que tendrá la oportunidad de convertirse en lo que siempre había soñado: ser ese héroe adorado por todos, que salva al mundo de una terrible amenaza.
Lo que no podía sospechar, es que con su cambio de videojuego, iba a crear una terrible distorsión, que amenaza con destruir el mundo en el que todos sus compañeros y amigos, viven desde hace tanto tiempo. Si el problema no se soluciona y Ralph no consigue volver a tiempo a su juego, el dueño del salón recreativo, desenchufará las máquinas para siempre.

Ficha Técnica / Technical details:
Título original: Wreck-It Ralph
Título : Ralph El Demoledor
Año: 2012
Duración: 101 min.
País: Estados Unidos
Director: Rich Moore
Guión: Phil Johnston
Música: Henry Jackman
Fotografía: Animation
Reparto: Animation
Productora: Walt Disney Animation Studios
Género: Animación. Fantástico. Comedia | Videojuego. 3-D

Trailer:




Datos Técnicos / Technical Data:
DVDRip | AVI | 699 MB | 640x282 | Español Latino

Capturas / Screenshots:


Mediainfo:
Código:
General
Complete name                            : Ralph El Demoledor.DVDRip.Latino(peliculastomas01).avi
Format                                   : AVI
Format/Info                              : Audio Video Interleave
File size                                : 699 MiB
Duration                                 : 1h 41mn
Overall bit rate                         : 966 Kbps
Recorded date                            : 16-02-2013
Writing application                      : VirtualDubMod 1.5.10.2 (build 2540/release) VirtualDubMod build 2540/release

Video
ID                                       : 0
Format                                   : MPEG-4 Visual
Format profile                           : Advanced Simple@L5
Format settings, BVOP                    : 2
Format settings, QPel                    : No
Format settings, GMC                     : No warppoints
Format settings, Matrix                  : Default (H.263)
Codec ID                                 : XVID
Codec ID/Hint                            : XviD
Duration                                 : 1h 41mn
Bit rate                                 : 828 Kbps
Width                                    : 640 pixels
Height                                   : 272 pixels
Display aspect ratio                     : 2.35:1
Frame rate                               : 23.976 fps
Color space                              : YUV
Chroma subsampling                       : 4:2:0
Bit depth                                : 8 bits
Scan type                                : Progressive
Compression mode                         : Lossy
Bits/(Pixel*Frame)                       : 0.198
Stream size                              : 600 MiB (86%)
Writing library                          : XviD 1.2.1 (UTC 2008-12-04)

Audio
ID                                       : 1
Format                                   : MPEG Audio
Format version                           : Version 1
Format profile                           : Layer 3
Mode                                     : Joint stereo
Mode extension                           : MS Stereo
Codec ID                                 : 55
Codec ID/Hint                            : MP3
Duration                                 : 1h 41mn
Bit rate mode                            : Constant
Bit rate                                 : 128 Kbps
Channel(s)                               : 2 channels
Sampling rate                            : 44.1 KHz
Compression mode                         : Lossy
Stream size                              : 92.7 MiB (13%)
Alignment                                : Split accross interleaves
Interleave, duration                     : 42 ms (1.00 video frame)
Interleave, preload duration             : 500 ms
Writing library                          : LAME3.98.2


Contraseña / Password:
Código:
peliculastomas01


Descargar Gratis / Download Free:


FreakShare | uploadable | FireDriver(PutLocker)

Código:
http://goo.gl/eu9Vkh

Notas:
----------------------------------------------------------------------------------------------------
-Si tienes problemas con el sonido reportamelo por MP, Ya le tengo solucion.
-Si algun enlace o link se cae, no lo avises comentando, hazlo por MP o por el reporte de links, asi me doy cuenta rapido.
-Verifica si he resubido los links aveces no lo comento en el foro, solo lo digo por el contenedor de links.
-Por favor, les pido que comenten sobre la calidad o sonido de la peli, asi los demas sabran lo que descargan.

----------------------------------------------------------------------------------------------------

Responder
Thanks given by:


Posibles temas similares...
Tema Autor Respuestas Vistas Último mensaje
Video Jason Bourne HD1080p Lat-Cast-Ing 5.1 (2016) dvdriplat 0 11 7 horas
Último mensaje: dvdriplat
Video Jason Bourne HD720p Lat-Cast-Ing 5.1 (2016) dvdriplat 0 9 7 horas
Último mensaje: dvdriplat
Video Fantastic Beasts and Where to Find Them [2016][3D H-SBS 1080p][Ing-Lat] profito 0 8 11 horas
Último mensaje: profito
  El halcón maltés [1941] [HDRIP] [DUAL ES IN] ][Cine Negro] Blade Master 666 0 4 Hoy, 12:58 AM
Último mensaje: Blade Master 666



Usuarios navegando en este tema: 1 invitado(s)

Powered By MyBB, © 2002-2017 MyBB Group.