Calificación:
  • 1 voto(s) - 3 Media
  • 1
  • 2
  • 3
  • 4
  • 5

[-]
Etiquetas
ride accion pl link 720phd along subtitulada 1 2014

Ride Along (2014) [720pHD/Subtitulada] [Accion] [1 Link] [PL]

#1
Video 

Sinopsis / Synopsis:
La trama de la película gira en torno a Ben (Kevin Hart) un vigilante de seguridad de una escuela se secundaria que tiene un propósito: casarse con Ángela (Tika Sumpter) la mujer de su vida. Sus planes se ven truncados cuando se da cuenta de que tiene que conseguir la aprobación de James (Ice Cube), el sobreprotector hermano de Ángela, un agente condecorado del departamento de policía de Atlanta.

Para demostrar su valentía Ben decide unirse al departamento de su cuñado, y aunque ha conseguido superar las pruebas, todavía tendrá que pasar la prueba más dura: deberá acompañar a James en una patrulla de 24 horas por los suburbios de la cuidad.

Ficha Técnica / Technical details:
Título original: Ride Along
Año: 2014
Duración: 100 min.
País: Estados Unidos
Director: Tim Story
Guión: Phil Hay, Greg Coolidge, Matt Manfredi, Jason Mantzoukas
Reparto: Ice Cube, Kevin Hart, Tika Sumpter, John Leguizamo, Gary Weeks, Bruce McGill, Bryan Callen, Gary Owen, Lucius Baston, Gary Weeks, Julisita Salcedo, Jay Pharoah, Dragos Bucur, Aaron Saxton, Kenny Alfonso, John Kap
Productora: Cube Vision / LBI Entertainment / Rainforest Films
Género: Acción. Comedia | Buddy Film

Trailer:




Datos Técnicos / Technical Data:
720pHD | AVI | 1.95 GB | 1280x532 | Sub Español

Capturas / Screenshots:


Mediainfo:
Código:
General
Complete name                            : Ride.Along.720.Vose(peliculastomas01).avi
Format                                   : AVI
Format/Info                              : Audio Video Interleave
Format profile                           : OpenDML
File size                                : 1.95 GiB
Duration                                 : 1h 39mn
Overall bit rate                         : 2 804 Kbps
Writing application                      : Lavf52.84.0

Video
ID                                       : 0
Format                                   : MPEG-4 Visual
Format profile                           : Simple@L1
Format settings, BVOP                    : No
Format settings, QPel                    : No
Format settings, GMC                     : No warppoints
Format settings, Matrix                  : Default (H.263)
Codec ID                                 : XVID
Codec ID/Hint                            : XviD
Duration                                 : 1h 39mn
Bit rate                                 : 2 664 Kbps
Width                                    : 1 280 pixels
Height                                   : 532 pixels
Display aspect ratio                     : 2.40:1
Frame rate                               : 23.976 fps
Color space                              : YUV
Chroma subsampling                       : 4:2:0
Bit depth                                : 8 bits
Scan type                                : Progressive
Compression mode                         : Lossy
Bits/(Pixel*Frame)                       : 0.163
Stream size                              : 1.85 GiB (95%)
Writing library                          : Lavc52.97.0

Audio
ID                                       : 1
Format                                   : MPEG Audio
Format version                           : Version 1
Format profile                           : Layer 3
Mode                                     : Joint stereo
Mode extension                           : MS Stereo
Codec ID                                 : 55
Codec ID/Hint                            : MP3
Duration                                 : 1h 39mn
Bit rate mode                            : Constant
Bit rate                                 : 128 Kbps
Channel(s)                               : 2 channels
Sampling rate                            : 48.0 KHz
Compression mode                         : Lossy
Stream size                              : 91.1 MiB (5%)
Alignment                                : Aligned on interleaves
Interleave, duration                     : 24 ms (0.58 video frame)
Writing library                          : LAME3.98.4

Contraseña / Password:
Código:
peliculastomas01

Descargar Gratis / Download Free:

FreakShare | uploadable | FireDriver(PutLocker)

Código:
http://goo.gl/eebgSZ

Notas:
----------------------------------------------------------------------------------------------------
-Si tienes problemas con el sonido reportamelo por MP, Ya le tengo solucion.
-Si algun enlace o link se cae, no lo avises comentando, hazlo por MP o por el reporte de links, asi me doy cuenta rapido.
-Verifica si he resubido los links aveces no lo comento en el foro, solo lo digo por el contenedor de links.
-Por favor, les pido que comenten sobre la calidad o sonido de la peli, asi los demas sabran lo que descargan.


----------------------------------------------------------------------------------------------------

Responder
Thanks given by:


Posibles temas similares...
Tema Autor Respuestas Vistas Último mensaje
Video Jason Bourne HD1080p Lat-Cast-Ing 5.1 (2016) dvdriplat 0 11 7 horas
Último mensaje: dvdriplat
Video Jason Bourne HD720p Lat-Cast-Ing 5.1 (2016) dvdriplat 0 9 7 horas
Último mensaje: dvdriplat
Video Fantastic Beasts and Where to Find Them [2016][3D H-SBS 1080p][Ing-Lat] profito 0 8 11 horas
Último mensaje: profito
  El halcón maltés [1941] [HDRIP] [DUAL ES IN] ][Cine Negro] Blade Master 666 0 4 Hoy, 12:58 AM
Último mensaje: Blade Master 666



Usuarios navegando en este tema: 1 invitado(s)

Powered By MyBB, © 2002-2017 MyBB Group.