Calificación:
  • 0 voto(s) - 0 Media
  • 1
  • 2
  • 3
  • 4
  • 5

[-]
Etiquetas
ride latino accion pl link español along 1 2014 dvdrip

Ride Along (2014) [DVDRip/Español Latino] [Accion] [1 Link] [PL]

#1
Video 

Sinopsis / Synopsis:
La trama de la película gira en torno a Ben (Kevin Hart) un vigilante de seguridad de una escuela se secundaria que tiene un propósito: casarse con Ángela (Tika Sumpter) la mujer de su vida. Sus planes se ven truncados cuando se da cuenta de que tiene que conseguir la aprobación de James (Ice Cube), el sobreprotector hermano de Ángela, un agente condecorado del departamento de policía de Atlanta.

Para demostrar su valentía Ben decide unirse al departamento de su cuñado, y aunque ha conseguido superar las pruebas, todavía tendrá que pasar la prueba más dura: deberá acompañar a James en una patrulla de 24 horas por los suburbios de la cuidad.

Ficha Técnica / Technical details:
Título original: Ride Along
Año: 2014
Duración: 100 min.
País: Estados Unidos
Director: Tim Story
Guión: Phil Hay, Greg Coolidge, Matt Manfredi, Jason Mantzoukas
Reparto: Ice Cube, Kevin Hart, Tika Sumpter, John Leguizamo, Gary Weeks, Bruce McGill, Bryan Callen, Gary Owen, Lucius Baston, Gary Weeks, Julisita Salcedo, Jay Pharoah, Dragos Bucur, Aaron Saxton, Kenny Alfonso, John Kap
Productora: Cube Vision / LBI Entertainment / Rainforest Films
Género: Acción. Comedia | Buddy Film

Trailer:




Datos Técnicos / Technical Data:
DVDRip | AVI | 700 MB | 640x272 | Español Latino

Capturas / Screenshots:


Mediainfo:
Código:
General
Complete name                            : Ride Along.DVDRip.Latino(peliculastomas01).avi
Format                                   : AVI
Format/Info                              : Audio Video Interleave
File size                                : 701 MiB
Duration                                 : 1h 39mn
Overall bit rate                         : 984 Kbps
Recorded date                            : 01-04-2014

Video
ID                                       : 0
Format                                   : MPEG-4 Visual
Format profile                           : Advanced Simple@L5
Format settings, BVOP                    : 2
Format settings, QPel                    : No
Format settings, GMC                     : No warppoints
Format settings, Matrix                  : Default (H.263)
Codec ID                                 : XVID
Codec ID/Hint                            : XviD
Duration                                 : 1h 39mn
Bit rate                                 : 863 Kbps
Width                                    : 640 pixels
Height                                   : 272 pixels
Display aspect ratio                     : 2.35:1
Frame rate                               : 23.976 fps
Color space                              : YUV
Chroma subsampling                       : 4:2:0
Bit depth                                : 8 bits
Scan type                                : Progressive
Compression mode                         : Lossy
Bits/(Pixel*Frame)                       : 0.207
Stream size                              : 614 MiB (88%)
Writing library                          : XviD 1.2.1 (UTC 2008-12-04)

Audio
ID                                       : 1
Format                                   : MPEG Audio
Format version                           : Version 1
Format profile                           : Layer 3
Mode                                     : Joint stereo
Mode extension                           : MS Stereo
Codec ID                                 : 55
Codec ID/Hint                            : MP3
Duration                                 : 1h 39mn
Bit rate mode                            : Constant
Bit rate                                 : 112 Kbps
Channel(s)                               : 2 channels
Sampling rate                            : 44.1 KHz
Compression mode                         : Lossy
Stream size                              : 79.7 MiB (11%)
Alignment                                : Split accross interleaves
Interleave, duration                     : 42 ms (1.00 video frame)
Interleave, preload duration             : 500 ms
Writing library                          : LAME3.98.2
Language                                 : un


Contraseña / Password:
Código:
peliculastomas01

Descargar Gratis / Download Free:

FreakShare | uploadable | FireDriver(PutLocker)

Código:
http://goo.gl/objhnY

Notas:
----------------------------------------------------------------------------------------------------
-Si tienes problemas con el sonido reportamelo por MP, Ya le tengo solucion.
-Si algun enlace o link se cae, no lo avises comentando, hazlo por MP o por el reporte de links, asi me doy cuenta rapido.
-Verifica si he resubido los links aveces no lo comento en el foro, solo lo digo por el contenedor de links.
-Por favor, les pido que comenten sobre la calidad o sonido de la peli, asi los demas sabran lo que descargan.


----------------------------------------------------------------------------------------------------

Responder
Thanks given by:


Posibles temas similares...
Tema Autor Respuestas Vistas Último mensaje
Video Ultravioleta HD1080p Lat-Cast-Ing 5.1 (2006) dvdriplat 0 5 8 horas
Último mensaje: dvdriplat
Video Ultravioleta HD720p Lat-Cast-Ing 5.1 (2006) dvdriplat 0 4 9 horas
Último mensaje: dvdriplat
Video El Regreso De La Mosca HD1080p Lat-Cast-Ing 2.0 (1959) dvdriplat 0 7 Hoy, 05:13 AM
Último mensaje: dvdriplat
Video El Regreso De La Mosca HD720p Lat-Cast-Ing 2.0 (1959) dvdriplat 0 6 Hoy, 05:05 AM
Último mensaje: dvdriplat



Usuarios navegando en este tema: 1 invitado(s)

Powered By MyBB, © 2002-2017 MyBB Group.