Calificación:
  • 0 voto(s) - 0 Media
  • 1
  • 2
  • 3
  • 4
  • 5

[-]
Etiquetas
latino pl link ts español animacion 1 2 2014 rio screener

Rio 2 (2014) [TS Screener/Español Latino] [Animacion] [1 Link] [PL]

#1
Video 

Sinopsis / Synopsis:
En "RIO 2", Blu, Perla y sus tres hijos cambian por un tiempo su hogar en la mágica ciudad de Rio de Janeiro por la espesa selva del Amazonas. Blu trata de encajar, la emprende a picotazos con el vengativo Nigel y conoce al adversario más aterrador de todos: su suegro. Todos nuestros personajes favoritos de RIO han vuelto y se les unen, el candidato al Oscar®, Andy García; el ganador del Grammy®, Bruno Mars; la ganadora del Tony®, Kristin Chenoweth, y la ganadora del Oscar, el Emmy y el Tony, Rita Moreno. "RIO 2" también cuenta con nuevos artistas brasileños y música original de Janelle Monae y Wondaland.

Ficha Técnica / Technical details:
Título original: Rio 2
Año: 2014
Duración: 101 min.
País: Estados Unidos
Director: Carlos Saldanha
Guión: Carlos Saldanha
Música: Sérgio Mendes
Fotografía: Renato Falcão
Reparto: Animation
Productora: Blue Sky Studios / Twentieth Century Fox Animation
Género: Animación. Comedia. Aventuras. Infantil | Pájaros. 3-D. Secuela
Estreno en USA: 11/04/2014
Estreno en España: 04/04/2014

Trailer:




Mira los primeros 3 minutos de la peli, antes de descargarla:
Código:
http://played.to/8gapytde6n8f

Datos Técnicos / Technical Data:
TS Screener | AVI | 908 MB | 720x328 | Español Latino

Capturas / Screenshots:


Mediainfo:
Código:
General
Complete name                            : RIO2.TS.LAT(peliculastomas01).avi
Format                                   : AVI
Format/Info                              : Audio Video Interleave
File size                                : 909 MiB
Duration                                 : 1h 32mn
Overall bit rate                         : 1 381 Kbps
Writing application                      : Lavf52.84.0

Video
ID                                       : 0
Format                                   : MPEG-4 Visual
Format profile                           : Simple@L1
Format settings, BVOP                    : No
Format settings, QPel                    : No
Format settings, GMC                     : No warppoints
Format settings, Matrix                  : Default (H.263)
Codec ID                                 : XVID
Codec ID/Hint                            : XviD
Duration                                 : 1h 32mn
Bit rate                                 : 1 239 Kbps
Width                                    : 720 pixels
Height                                   : 328 pixels
Display aspect ratio                     : 2.2:1
Frame rate                               : 29.970 fps
Color space                              : YUV
Chroma subsampling                       : 4:2:0
Bit depth                                : 8 bits
Scan type                                : Progressive
Compression mode                         : Lossy
Bits/(Pixel*Frame)                       : 0.175
Stream size                              : 816 MiB (90%)
Writing library                          : Lavc52.97.0

Audio
ID                                       : 1
Format                                   : MPEG Audio
Format version                           : Version 1
Format profile                           : Layer 3
Mode                                     : Joint stereo
Mode extension                           : MS Stereo
Codec ID                                 : 55
Codec ID/Hint                            : MP3
Duration                                 : 1h 32mn
Bit rate mode                            : Constant
Bit rate                                 : 128 Kbps
Channel(s)                               : 2 channels
Sampling rate                            : 48.0 KHz
Compression mode                         : Lossy
Stream size                              : 84.2 MiB (9%)
Alignment                                : Aligned on interleaves
Interleave, duration                     : 24 ms (0.72 video frame)

Contraseña / Password:
Código:
peliculastomas01

Descargar Gratis / Download Free:

FreakShare | uploadable | FireDriver(PutLocker)

Código:
http://goo.gl/GOhHyO

Notas:
----------------------------------------------------------------------------------------------------
-Si tienes problemas con el sonido reportamelo por MP, Ya le tengo solucion.
-Si algun enlace o link se cae, no lo avises comentando, hazlo por MP o por el reporte de links, asi me doy cuenta rapido.
-Verifica si he resubido los links aveces no lo comento en el foro, solo lo digo por el contenedor de links.
-Por favor, les pido que comenten sobre la calidad o sonido de la peli, asi los demas sabran lo que descargan.


----------------------------------------------------------------------------------------------------

Responder
Thanks given by:


Posibles temas similares...
Tema Autor Respuestas Vistas Último mensaje
Video Ultravioleta HD1080p Lat-Cast-Ing 5.1 (2006) dvdriplat 0 5 8 horas
Último mensaje: dvdriplat
Video Ultravioleta HD720p Lat-Cast-Ing 5.1 (2006) dvdriplat 0 4 9 horas
Último mensaje: dvdriplat
Video El Regreso De La Mosca HD1080p Lat-Cast-Ing 2.0 (1959) dvdriplat 0 7 Hoy, 05:13 AM
Último mensaje: dvdriplat
Video El Regreso De La Mosca HD720p Lat-Cast-Ing 2.0 (1959) dvdriplat 0 6 Hoy, 05:05 AM
Último mensaje: dvdriplat



Usuarios navegando en este tema: 1 invitado(s)

Powered By MyBB, © 2002-2017 MyBB Group.