Calificación:
  • 0 voto(s) - 0 Media
  • 1
  • 2
  • 3
  • 4
  • 5

[-]
Etiquetas
pl link c dvd robocop castellano r6 1 ficción 2014 screener

Robocop (2014) [DVD Screener R6/Castellano] [C. Ficción] [1 Link] [PL]

#1
Video 


Sinopsis:
En RoboCop, corre el año 2029 y el conglomerado multinacional OmniCorp está en el eje de la tecnología robótica. Sus aviones ganan las guerras estadounidenses en todo el mundo y ahora pretenden traer esta tecnología para el frente interno. Alex Murphy, esposo, padre y policía hace todo lo posible para detener la ola de crimen y corrupción en Detroit. Tras caer gravemente herido en el cumplimiento de su deber, OmniCorp utiliza su extraordinaria robótica para salvar la vida de Alex. El policía regresa ahora a su amada ciudad con sorprendentes nuevas habilidades, pero con unos problemas con los que un hombre común nunca habría tenido que enfrentarse.

Del director José Padilha (Elite Squad), la película recrea la historia de un hombre mitad humano mitad máquina. Está protagonizada por un policía interpretado por Joel Kinnaman (The Killing) como el personaje del título, Gary Oldman (The Dark Knight Rises) como el científico que crea el robot y Samuel L. Jackson (The Avengers) como el magnate de los medios, Pat Novak.

Ficha Técnica:
Título original: Robocop
Año: 2014
Duración: 118 min.
País: Estados Unidos
Director: José Padilha
Guión: Joshua Zetumer, James Vanderbilt, Nick Schenk
Reparto: Joel Kinnaman, Gary Oldman, Michael Keaton, Abbie Cornish, Samuel L. Jackson, Jackie Earle Haley, Michael K. Williams, Jay Baruchel, Jennifer Ehle, Marianne Jean-Baptiste
Productora: MGM / Columbia Pictures / Strike Entertainment
Género: Ciencia ficción. Acción | Remake
Estreno en USA: 12/02/2014
Estreno en España: 14/02/2014

Trailer:




Mira los primeros 3 minutos de la peli, antes de descargarla:
Código:
http://played.to/0t9xf2neucse

Datos Técnicos:
DVD Screener R6 | MP4 | 648 MB | 720x304 | Castellano

Capturas:


Mediainfo:
Código:
General
Complete name                            : Robocop.DVDSCR.R6.Castellano(peliculastomas01).mp4
Format                                   : MPEG-4
Format profile                           : Base Media
Codec ID                                 : isom
File size                                : 649 MiB
Duration                                 : 1h 48mn
Overall bit rate mode                    : Variable
Overall bit rate                         : 838 Kbps
Writing application                      : Lavf54.63.104

Video
ID                                       : 1
Format                                   : AVC
Format/Info                              : Advanced Video Codec
Format profile                           : High@L3.0
Format settings, CABAC                   : Yes
Format settings, ReFrames                : 4 frames
Codec ID                                 : avc1
Codec ID/Info                            : Advanced Video Coding
Duration                                 : 1h 48mn
Bit rate                                 : 750 Kbps
Width                                    : 720 pixels
Height                                   : 304 pixels
Display aspect ratio                     : 2.35:1
Frame rate mode                          : Constant
Frame rate                               : 29.970 fps
Color space                              : YUV
Chroma subsampling                       : 4:2:0
Bit depth                                : 8 bits
Scan type                                : Progressive
Bits/(Pixel*Frame)                       : 0.114
Stream size                              : 580 MiB (89%)
Writing library                          : x264 core 120 r2151 a3f4407
Encoding settings                        : cabac=1 / ref=3 / deblock=1:0:0 / analyse=0x3:0x113 / me=hex / subme=7 / psy=1 / psy_rd=1.00:0.00 / mixed_ref=1 / me_range=16 / chroma_me=1 / trellis=1 / 8x8dct=1 / cqm=0 / deadzone=21,11 / fast_pskip=1 / chroma_qp_offset=-2 / threads=16 / sliced_threads=0 / nr=0 / decimate=1 / interlaced=0 / bluray_compat=0 / constrained_intra=0 / bframes=3 / b_pyramid=2 / b_adapt=1 / b_bias=0 / direct=1 / weightb=1 / open_gop=0 / weightp=2 / keyint=25 / keyint_min=2 / scenecut=40 / intra_refresh=0 / rc_lookahead=25 / rc=abr / mbtree=1 / bitrate=750 / ratetol=1.0 / qcomp=0.60 / qpmin=0 / qpmax=69 / qpstep=4 / ip_ratio=1.40 / aq=1:1.00

Audio
ID                                       : 2
Format                                   : AAC
Format/Info                              : Advanced Audio Codec
Format profile                           : LC
Codec ID                                 : 40
Duration                                 : 1h 48mn
Bit rate mode                            : Variable
Bit rate                                 : 82.7 Kbps
Maximum bit rate                         : 128 Kbps
Channel(s)                               : 2 channels
Channel positions                        : Front: L R
Sampling rate                            : 24.0 KHz
Compression mode                         : Lossy
Stream size                              : 64.1 MiB (10%)


Contraseña / Password:
Código:
peliculastomas01


Descargar / Download:


FreakShare | uploadable | FireDriver(PutLocker)

Código:
http://goo.gl/rfWNNl

Notas:
----------------------------------------------------------------------------------------------------
-Si tienes problemas con el sonido reportamelo por MP, Ya le tengo solucion.
-Si algun enlace o link se cae, no lo avises comentando, hazlo por MP o por el reporte de links, asi me doy cuenta rapido.
-Verifica si he resubido los links aveces no lo comento en el foro, solo lo digo por el contenedor de links.
-Por favor, les pido que comenten sobre la calidad o sonido de la peli, asi los demas sabran lo que descargan.


----------------------------------------------------------------------------------------------------

Responder
Thanks given by:


Posibles temas similares...
Tema Autor Respuestas Vistas Último mensaje
  El lazarillo de Tormes (Sin censura) [1959] [DVBRIP] [Castellano] [Drama Comedia] Blade Master 666 0 4 2 horas
Último mensaje: Blade Master 666
  Siete ladrones [1960] [DVDRip] [DUAL ES IN] [Drama Robos Atracos] Blade Master 666 0 4 2 horas
Último mensaje: Blade Master 666
Video The Hobbit An Unexpected Journey [2012][3D H-SBS 1080p][Ing-Lat] profito 0 3 3 horas
Último mensaje: profito
  La autopsia de Jane Doe (2016)(HDRip)(Ingles/Subtitulada)(Terror)(BDupload) kz8307 0 4 4 horas
Último mensaje: kz8307



Usuarios navegando en este tema: 1 invitado(s)

Powered By MyBB, © 2002-2017 MyBB Group.