Calificación:
  • 0 voto(s) - 0 Media
  • 1
  • 2
  • 3
  • 4
  • 5

[-]
Etiquetas
latino pl link ciencia webrip robocop 1 ficción 2014 screener

Robocop (2014) [WEBRip Screener/Latino] [Ciencia ficción] [1 Link] [PL]

#1
Video 

Sinopsis:
En RoboCop, corre el año 2029 y el  conglomerado multinacional OmniCorp  está en el eje de la tecnología  robótica. Sus aviones ganan las guerras  estadounidenses en todo el mundo  y ahora pretenden traer esta  tecnología para el frente interno. Alex  Murphy, esposo, padre y policía  hace todo lo posible para detener la ola  de crimen y corrupción en  Detroit. Tras caer gravemente herido en el  cumplimiento de su deber,  OmniCorp utiliza su extraordinaria robótica  para salvar la vida de  Alex. El policía regresa ahora a su amada ciudad  con sorprendentes  nuevas habilidades, pero con unos problemas con los  que un hombre común  nunca habría tenido que enfrentarse.  


Del director José Padilha (Elite Squad), la película recrea la historia   de un hombre mitad humano mitad máquina. Está protagonizada por un   policía interpretado por Joel Kinnaman (The Killing) como el personaje   del título, Gary Oldman (The Dark Knight Rises) como el científico que   crea el robot y Samuel L. Jackson (The Avengers) como el magnate de los   medios, Pat Novak.
 
Ficha Técnica:
Título original: Robocop
Año: 2014
Duración: 118 min.
País: Estados Unidos
Director: José Padilha
Guión: Joshua Zetumer, James Vanderbilt, Nick Schenk
Reparto: Joel Kinnaman,  Gary Oldman,  Michael Keaton,  Abbie Cornish,   Samuel L. Jackson,  Jackie Earle Haley,  Michael K. Williams,  Jay  Baruchel,  Jennifer Ehle,  Marianne Jean-Baptiste
Productora: MGM / Columbia Pictures / Strike Entertainment
Género: Ciencia ficción.          Acción |     Remake
Estreno en USA: 12/02/2014
Estreno en España: 14/02/2014

Trailer:




Mira los primeros 3 minutos de la peli, antes de descargarla:
Código:
http://played.to/gaepap69lczj

Datos Técnicos:
WEBRip Screener | MKV | 824 MB | 640x272 | Español Latino / Otro Sub

Capturas:


Mediainfo:
Código:
General
Unique ID                                : 249191705098968097851272932331550088762 (0xBB7893A0ED51DC6B9FCFA4AB11CF1E3A)
Complete name                            : Rbocop.Webrip.Latino(peliculastomas01).mkv
Format                                   : Matroska
Format version                           : Version 4 / Version 2
File size                                : 842 MiB
Duration                                 : 1h 48mn
Overall bit rate mode                    : Variable
Overall bit rate                         : 1 087 Kbps
Encoded date                             : UTC 2014-04-01 08:57:38
Writing application                      : mkvmerge v6.8.0 ('Theme for Great Cities') 64bit built on Mar  2 2014 21:34:26
Writing library                          : libebml v1.3.0 + libmatroska v1.4.1

Video
ID                                       : 1
Format                                   : MPEG-4 Visual
Format profile                           : Advanced Simple@L5
Format settings, BVOP                    : Yes
Format settings, QPel                    : No
Format settings, GMC                     : No warppoints
Format settings, Matrix                  : Default (H.263)
Codec ID                                 : XVID
Codec ID/Hint                            : XviD
Duration                                 : 1h 48mn
Bit rate                                 : 874 Kbps
Width                                    : 640 pixels
Height                                   : 272 pixels
Display aspect ratio                     : 2.35:1
Frame rate                               : 29.970 fps
Color space                              : YUV
Chroma subsampling                       : 4:2:0
Bit depth                                : 8 bits
Scan type                                : Progressive
Compression mode                         : Lossy
Bits/(Pixel*Frame)                       : 0.167
Stream size                              : 677 MiB (80%)
Writing library                          : XviD 1.2.1 (UTC 2008-12-04)
Default                                  : Yes
Forced                                   : No

Audio
ID                                       : 2
Format                                   : MPEG Audio
Format version                           : Version 1
Format profile                           : Layer 3
Mode                                     : Joint stereo
Mode extension                           : MS Stereo
Codec ID                                 : A_MPEG/L3
Codec ID/Hint                            : MP3
Duration                                 : 1h 48mn
Bit rate mode                            : Variable
Bit rate                                 : 192 Kbps
Channel(s)                               : 2 channels
Sampling rate                            : 48.0 KHz
Compression mode                         : Lossy
Stream size                              : 149 MiB (18%)
Title                                    : LATINO MIC
Language                                 : Spanish
Default                                  : Yes
Forced                                   : No


Contraseña / Password:

Código:
peliculastomas01


Descargar / Download:


FreakShare | uploadable | FireDriver(PutLocker)

Código:
http://goo.gl/OU9Xoo

Notas:
----------------------------------------------------------------------------------------------------
-Si tienes problemas con el sonido reportamelo por MP, Ya le tengo solucion.
-Si algun enlace o link se cae, no lo avises comentando, hazlo por MP o por el reporte de links, asi me doy cuenta rapido.
-Verifica si he resubido los links aveces no lo comento en el foro, solo lo digo por el contenedor de links.
-Por favor, les pido que comenten sobre la calidad o sonido de la peli, asi los demas sabran lo que descargan.


----------------------------------------------------------------------------------------------------

Responder
Thanks given by:
#2
gracias excelente Big Grin
Responder
Thanks given by:


Posibles temas similares...
Tema Autor Respuestas Vistas Último mensaje
Video Jason Bourne HD1080p Lat-Cast-Ing 5.1 (2016) dvdriplat 0 11 Hoy, 06:50 AM
Último mensaje: dvdriplat
Video Jason Bourne HD720p Lat-Cast-Ing 5.1 (2016) dvdriplat 0 9 Hoy, 06:48 AM
Último mensaje: dvdriplat
Video Fantastic Beasts and Where to Find Them [2016][3D H-SBS 1080p][Ing-Lat] profito 0 8 Hoy, 02:37 AM
Último mensaje: profito
  El halcón maltés [1941] [HDRIP] [DUAL ES IN] ][Cine Negro] Blade Master 666 0 5 Hoy, 12:58 AM
Último mensaje: Blade Master 666



Usuarios navegando en este tema: 1 invitado(s)

Powered By MyBB, © 2002-2017 MyBB Group.