Calificación:
  • 0 voto(s) - 0 Media
  • 1
  • 2
  • 3
  • 4
  • 5

[-]
Etiquetas
2012 link 720phd fd terror the castellano 1 collection

The Collection (2012) [720pHD/Castellano] [Terror] [1 Link] [FD]

#1
Video 

Sinopsis / Synopsis:
A Elena (Fitzpatrick) la convencen para asistir a una fiesta en un almacén subterráneo con sus amigos. Al hacerlo, cae de lleno en una trampa horripilante, ya que los asistentes a la fiesta mueren acuchillados, troceados y aplastados por una serie de macabros artefactos accionados por un psicópata enmascarado. Cuando la truculenta masacre toca a su fin, Elena es la única superviviente. Sin embargo, antes de que logre escapar, alguien la encierra en un baúl y se la lleva a un lugar desconocido.
Por suerte para Elena, un hombre -Arkin (Stewart)- sabe exactamente adónde se dirige, puesto que acaba de escaparse de allí y conserva, por muy poco, la vida y la cordura. Volver es lo último que desearía hacer Arkin, pero el acaudalado padre de Elena (McDonald) contrata a un grupo de mercenarios de élite que obligan a Arkin a guiarles a la guarida del asesino. Sin embargo, ni siquiera estos combatientes endurecidos están preparados para lo que se van a encontrar: un hotel abandonado convertido en cámara de tortura, lleno de trampas mortales y cadáveres desfigurados. ¿Serán capaces Arkin y los mercenarios de encontrar a Elena antes de que pase a formar parte de tan espantosa "colección"?

Ficha Técnica / Technical details:
Título original: The Collection
Año: 2012
Duración: 82 min.
País: Estados Unidos
Director: Marcus Dunstan
Guión: Marcus Dunstan, Patrick Melton
Música: Charlie Clouser
Fotografía: Sam McCurdy
Reparto: Emma Fitzpatrick, Josh Stewart, Lee Tergesen, Christopher McDonald, Erin Way, Daniel Sharman, Johanna Braddy, Navi Rawat, Andre Royo, Brandon Molale, Justin Mortelliti, Eaddy Mays, Shannon Kane, William Peltz, Tim Griffin, Robert Pralgo
Productora: LD Entertainment / Fortress Features
Género: Terror. Thriller. Acción | Crimen. Gore. Asesinos en serie. Secuela
Estreno en USA: 30/11/2012
Estreno en España: 15/11/2013

Trailer:




Datos Técnicos / Technical Data:
720pHD | MKV | 2.08 GB | 1280x544 | Castellano

Capturas / Screenshots:


Mediainfo:
Código:
General
Unique ID                                : 217520101634048405101979206300002980784 (0xA3A4D90475F8FEEDB06F778B571493B0)
Complete name                            : The Collection.720p.Castellano(peliculastomas01).mkv
Format                                   : Matroska
Format version                           : Version 4 / Version 2
File size                                : 2.08 GiB
Duration                                 : 1h 21mn
Overall bit rate                         : 3 647 Kbps
Encoded date                             : UTC 2014-04-09 13:26:11
Writing application                      : mkvmerge v6.5.0 ('Isn't she lovely') built on Oct 20 2013 12:50:05
Writing library                          : libebml v1.3.0 + libmatroska v1.4.1

Video
ID                                       : 1
Format                                   : AVC
Format/Info                              : Advanced Video Codec
Format profile                           : High@L4.1
Format settings, CABAC                   : Yes
Format settings, ReFrames                : 6 frames
Codec ID                                 : V_MPEG4/ISO/AVC
Duration                                 : 1h 21mn
Bit rate                                 : 2 750 Kbps
Width                                    : 1 280 pixels
Height                                   : 544 pixels
Display aspect ratio                     : 2.35:1
Frame rate                               : 24.000 fps
Color space                              : YUV
Chroma subsampling                       : 4:2:0
Bit depth                                : 8 bits
Scan type                                : Progressive
Bits/(Pixel*Frame)                       : 0.165
Stream size                              : 1.53 GiB (73%)
Writing library                          : x264 core 129 r2230 1cffe9f
Encoding settings                        : cabac=1 / ref=6 / deblock=1:0:0 / analyse=0x3:0x113 / me=hex / subme=7 / psy=1 / psy_rd=1.00:0.00 / mixed_ref=0 / me_range=16 / chroma_me=1 / trellis=1 / 8x8dct=1 / cqm=0 / deadzone=21,11 / fast_pskip=0 / chroma_qp_offset=-2 / threads=3 / lookahead_threads=1 / sliced_threads=0 / nr=0 / decimate=0 / interlaced=0 / bluray_compat=0 / constrained_intra=0 / bframes=6 / b_pyramid=2 / b_adapt=1 / b_bias=0 / direct=1 / weightb=1 / open_gop=0 / weightp=2 / keyint=240 / keyint_min=24 / scenecut=40 / intra_refresh=0 / rc_lookahead=40 / rc=2pass / mbtree=1 / bitrate=2750 / ratetol=1.0 / qcomp=0.60 / qpmin=0 / qpmax=69 / qpstep=4 / cplxblur=20.0 / qblur=0.5 / ip_ratio=1.40 / aq=1:1.00
Language                                 : English
Default                                  : Yes
Forced                                   : No

Audio #1
ID                                       : 2
Format                                   : AC-3
Format/Info                              : Audio Coding 3
Mode extension                           : CM (complete main)
Codec ID                                 : A_AC3
Duration                                 : 1h 21mn
Bit rate mode                            : Constant
Bit rate                                 : 448 Kbps
Channel(s)                               : 6 channels
Channel positions                        : Front: L C R, Side: L R, LFE
Sampling rate                            : 48.0 KHz
Bit depth                                : 16 bits
Compression mode                         : Lossy
Stream size                              : 262 MiB (12%)
Language                                 : Spanish
Default                                  : Yes
Forced                                   : No

Audio #2
ID                                       : 3
Format                                   : AC-3
Format/Info                              : Audio Coding 3
Mode extension                           : CM (complete main)
Codec ID                                 : A_AC3
Duration                                 : 1h 21mn
Bit rate mode                            : Constant
Bit rate                                 : 448 Kbps
Channel(s)                               : 6 channels
Channel positions                        : Front: L C R, Side: L R, LFE
Sampling rate                            : 48.0 KHz
Bit depth                                : 16 bits
Compression mode                         : Lossy
Stream size                              : 262 MiB (12%)
Language                                 : English
Default                                  : No
Forced                                   : No

Text #1
ID                                       : 4
Format                                   : UTF-8
Codec ID                                 : S_TEXT/UTF8
Codec ID/Info                            : UTF-8 Plain Text
Language                                 : Spanish
Default                                  : No
Forced                                   : No

Text #2
ID                                       : 5
Format                                   : UTF-8
Codec ID                                 : S_TEXT/UTF8
Codec ID/Info                            : UTF-8 Plain Text
Language                                 : English
Default                                  : No
Forced                                   : No


Contraseña / Password:
Código:
peliculastomas01


Descargar Gratis / Download Free:


FreakShare | uploadable | FireDriver(PutLocker)

Código:
http://goo.gl/Ku4UMQ

Notas:
----------------------------------------------------------------------------------------------------
-Si tienes problemas con el sonido reportamelo por MP, Ya le tengo solucion.
-Si algun enlace o link se cae, no lo avises comentando, hazlo por MP o por el reporte de links, asi me doy cuenta rapido.
-Verifica si he resubido los links aveces no lo comento en el foro, solo lo digo por el contenedor de links.
-Por favor, les pido que comenten sobre la calidad o sonido de la peli, asi los demas sabran lo que descargan.


----------------------------------------------------------------------------------------------------

Responder
Thanks given by:


Posibles temas similares...
Tema Autor Respuestas Vistas Último mensaje
  Las ratas del desierto [1953] [DVDRip] [Castellano] [Bélico IIGM] Blade Master 666 0 27 04-28-2017, 03:24 AM
Último mensaje: Blade Master 666
  Infierno en la bahía de San Francisco [1955] [DVDRip] [DUAL ES IN] [Thriller Drama] Blade Master 666 0 13 04-28-2017, 03:21 AM
Último mensaje: Blade Master 666
Video Turbo [2013][3D H-SBS 1080p][Ing-Lat] profito 0 8 04-28-2017, 02:45 AM
Último mensaje: profito
Video The Lion King III [2004][FullHD 1080][Ing-Lat] profito 0 5 04-27-2017, 11:28 PM
Último mensaje: profito



Usuarios navegando en este tema: 1 invitado(s)

Powered By MyBB, © 2002-2017 MyBB Group.