Calificación:
  • 0 voto(s) - 0 Media
  • 1
  • 2
  • 3
  • 4
  • 5

[-]
Etiquetas
2012 pl link terror the castellano 1 collection dvdrip

The Collection (2012) [DVDRip/Castellano] [Terror] [1 Link] [PL]

#1
Video 

Sinopsis / Synopsis:
A Elena (Fitzpatrick) la convencen para asistir a una fiesta en un almacén subterráneo con sus amigos. Al hacerlo, cae de lleno en una trampa horripilante, ya que los asistentes a la fiesta mueren acuchillados, troceados y aplastados por una serie de macabros artefactos accionados por un psicópata enmascarado. Cuando la truculenta masacre toca a su fin, Elena es la única superviviente. Sin embargo, antes de que logre escapar, alguien la encierra en un baúl y se la lleva a un lugar desconocido.

Por suerte para Elena, un hombre -Arkin (Stewart)- sabe exactamente adónde se dirige, puesto que acaba de escaparse de allí y conserva, por muy poco, la vida y la cordura. Volver es lo último que desearía hacer Arkin, pero el acaudalado padre de Elena (McDonald) contrata a un grupo de mercenarios de élite que obligan a Arkin a guiarles a la guarida del asesino. Sin embargo, ni siquiera estos combatientes endurecidos están preparados para lo que se van a encontrar: un hotel abandonado convertido en cámara de tortura, lleno de trampas mortales y cadáveres desfigurados. ¿Serán capaces Arkin y los mercenarios de encontrar a Elena antes de que pase a formar parte de tan espantosa "colección"?

Ficha Técnica / Technical details:
Título original: The Collection
Año: 2012
Duración: 82 min.
País: Estados Unidos
Director: Marcus Dunstan
Guión: Marcus Dunstan, Patrick Melton
Música: Charlie Clouser
Fotografía: Sam McCurdy
Reparto: Emma Fitzpatrick, Josh Stewart, Lee Tergesen, Christopher McDonald, Erin Way, Daniel Sharman, Johanna Braddy, Navi Rawat, Andre Royo, Brandon Molale, Justin Mortelliti, Eaddy Mays, Shannon Kane, William Peltz, Tim Griffin, Robert Pralgo
Productora: LD Entertainment / Fortress Features
Género: Terror. Thriller. Acción | Crimen. Gore. Asesinos en serie. Secuela
Estreno en USA: 30/11/2012
Estreno en España: 15/11/2013

Trailer:




Datos Técnicos / Technical Data:
DVDRip | AVI | 984 MB | 720x290 | Castellano

Capturas / Screenshots:


Mediainfo:
Código:
General
Complete name                            : The Collection.DVDRip.Castellano(peliculastomas01).avi
Format                                   : AVI
Format/Info                              : Audio Video Interleave
File size                                : 985 MiB
Duration                                 : 1h 18mn
Overall bit rate                         : 1 756 Kbps
Writing application                      : VirtualDubMod 1.5.10.1 (build 2439/release)
Writing library                          : VirtualDubMod build 2439/release

Video
ID                                       : 0
Format                                   : AVC
Format/Info                              : Advanced Video Codec
Format profile                           : High@L4.1
Format settings, CABAC                   : Yes
Format settings, ReFrames                : 2 frames
Codec ID                                 : H264
Duration                                 : 1h 18mn
Bit rate                                 : 1 299 Kbps
Width                                    : 720 pixels
Height                                   : 290 pixels
Display aspect ratio                     : 2.483
Frame rate                               : 25.000 fps
Color space                              : YUV
Chroma subsampling                       : 4:2:0
Bit depth                                : 8 bits
Scan type                                : Progressive
Bits/(Pixel*Frame)                       : 0.249
Stream size                              : 728 MiB (74%)
Writing library                          : x264 core
Color primaries                          : BT.601-6 525, BT.1358 525, BT.1700 NTSC, SMPTE 170M
Transfer characteristics                 : BT.709-5, BT.1361
Matrix coefficients                      : BT.601-6 525, BT.1358 525, BT.1700 NTSC, SMPTE 170M

Audio
ID                                       : 1
Format                                   : AC-3
Format/Info                              : Audio Coding 3
Mode extension                           : CM (complete main)
Codec ID                                 : 2000
Duration                                 : 1h 18mn
Bit rate mode                            : Constant
Bit rate                                 : 448 Kbps
Channel(s)                               : 6 channels
Channel positions                        : Front: L C R, Side: L R, LFE
Sampling rate                            : 48.0 KHz
Bit depth                                : 16 bits
Compression mode                         : Lossy
Stream size                              : 251 MiB (26%)
Alignment                                : Split accross interleaves
Interleave, duration                     : 40 ms (1.00 video frame)
Interleave, preload duration             : 500 ms


Contraseña / Password:
Código:
peliculastomas01


Descargar Gratis / Download Free:


FreakShare | uploadable | FireDriver(PutLocker)

Código:
http://goo.gl/ciiXrm

Notas:
----------------------------------------------------------------------------------------------------
-Si tienes problemas con el sonido reportamelo por MP, Ya le tengo solucion.
-Si algun enlace o link se cae, no lo avises comentando, hazlo por MP o por el reporte de links, asi me doy cuenta rapido.
-Verifica si he resubido los links aveces no lo comento en el foro, solo lo digo por el contenedor de links.
-Por favor, les pido que comenten sobre la calidad o sonido de la peli, asi los demas sabran lo que descargan.


----------------------------------------------------------------------------------------------------

Responder
Thanks given by:


Posibles temas similares...
Tema Autor Respuestas Vistas Último mensaje
Video Fantastic Beasts and Where to Find Them [2016][3D H-SBS 1080p][Ing-Lat] profito 0 7 2 horas
Último mensaje: profito
  El halcón maltés [1941] [HDRIP] [DUAL ES IN] ][Cine Negro] Blade Master 666 0 4 3 horas
Último mensaje: Blade Master 666
Video Ultravioleta HD1080p Lat-Cast-Ing 5.1 (2006) dvdriplat 0 7 Ayer, 02:16 PM
Último mensaje: dvdriplat
Video Ultravioleta HD720p Lat-Cast-Ing 5.1 (2006) dvdriplat 0 5 Ayer, 02:05 PM
Último mensaje: dvdriplat



Usuarios navegando en este tema: 1 invitado(s)

Powered By MyBB, © 2002-2017 MyBB Group.