Calificación:
  • 0 voto(s) - 0 Media
  • 1
  • 2
  • 3
  • 4
  • 5

[-]
Etiquetas
nut pl link 720phd animación the subtitulada job 1 2014

The Nut Job (2014) [720pHD/Subtitulada] [Animación] [1 Link] [PL]

#1
Video 

Sinopsis / Synopsis:
Comedia repleta de acción establecida a finales de los años 50's en una ficticia Oakton (Virginia), donde veremos las andanzas de una traviesa ardilla (Surly) y su compinche rata (Buddy), quienes planean un atraco a un almacén de nueces que se les acabará yendo de las manos.

Ficha Técnica / Technical details:
Título original: The Nut Job
Año: 2014
Duración: 86 min.
País: Canadá
Director: Peter Lepeniotis
Guión: Peter Lepeniotis, Lorne Cameron, Daniel Woo
Música: Paul Intson
Fotografía: Animation
Reparto: Animation
Productora: Gulfstream Pictures / Red Rover International / ToonBox Entertainment
Género: Animación. Comedia. Acción | Años 50. Roedores. Robos & Atracos
Estreno en USA: 17/01/2014
Estreno en España: ---

Trailer:




Datos Técnicos / Technical Data:
720pHD | AVI | 1.82 GB | 1280x720 | Sub Español

Capturas / Screenshots:


Mediainfo:
Código:
General
Complete name                            : The Nut Job.720p.VOSE(peliculastomas01).avi
Format                                   : AVI
Format/Info                              : Audio Video Interleave
Format profile                           : OpenDML
File size                                : 1.82 GiB
Duration                                 : 1h 21mn
Overall bit rate                         : 3 179 Kbps
Writing application                      : Lavf52.84.0

Video
ID                                       : 0
Format                                   : MPEG-4 Visual
Format profile                           : Simple@L1
Format settings, BVOP                    : No
Format settings, QPel                    : No
Format settings, GMC                     : No warppoints
Format settings, Matrix                  : Default (H.263)
Codec ID                                 : XVID
Codec ID/Hint                            : XviD
Duration                                 : 1h 21mn
Bit rate                                 : 3 102 Kbps
Width                                    : 1 280 pixels
Height                                   : 720 pixels
Display aspect ratio                     : 16:9
Frame rate                               : 25.000 fps
Color space                              : YUV
Chroma subsampling                       : 4:2:0
Bit depth                                : 8 bits
Scan type                                : Progressive
Compression mode                         : Lossy
Bits/(Pixel*Frame)                       : 0.135
Stream size                              : 1.78 GiB (98%)
Writing library                          : Lavc52.97.0

Audio
ID                                       : 1
Format                                   : MPEG Audio
Format version                           : Version 1
Format profile                           : Layer 3
Mode                                     : Joint stereo
Mode extension                           : MS Stereo
Codec ID                                 : 55
Codec ID/Hint                            : MP3
Duration                                 : 42mn 11s
Bit rate mode                            : Constant
Bit rate                                 : 128 Kbps
Channel(s)                               : 2 channels
Sampling rate                            : 48.0 KHz
Compression mode                         : Lossy
Stream size                              : 38.6 MiB (2%)
Alignment                                : Aligned on interleaves
Interleave, duration                     : 47 ms (1.17 video frame)

Contraseña / Password:
Código:
peliculastomas01

Descargar Gratis / Download Free:

FreakShare | uploadable | FireDriver(PutLocker)

Código:
http://goo.gl/gUR6A8

Notas:
----------------------------------------------------------------------------------------------------
-Si tienes problemas con el sonido reportamelo por MP, Ya le tengo solucion.
-Si algun enlace o link se cae, no lo avises comentando, hazlo por MP o por el reporte de links, asi me doy cuenta rapido.
-Verifica si he resubido los links aveces no lo comento en el foro, solo lo digo por el contenedor de links.
-Por favor, les pido que comenten sobre la calidad o sonido de la peli, asi los demas sabran lo que descargan.


----------------------------------------------------------------------------------------------------

Responder
Thanks given by:


Posibles temas similares...
Tema Autor Respuestas Vistas Último mensaje
  Las ratas del desierto [1953] [DVDRip] [Castellano] [Bélico IIGM] Blade Master 666 0 27 04-28-2017, 03:24 AM
Último mensaje: Blade Master 666
  Infierno en la bahía de San Francisco [1955] [DVDRip] [DUAL ES IN] [Thriller Drama] Blade Master 666 0 13 04-28-2017, 03:21 AM
Último mensaje: Blade Master 666
Video Turbo [2013][3D H-SBS 1080p][Ing-Lat] profito 0 8 04-28-2017, 02:45 AM
Último mensaje: profito
Video The Lion King III [2004][FullHD 1080][Ing-Lat] profito 0 5 04-27-2017, 11:28 PM
Último mensaje: profito



Usuarios navegando en este tema: 1 invitado(s)

Powered By MyBB, © 2002-2017 MyBB Group.