Calificación:
  • 0 voto(s) - 0 Media
  • 1
  • 2
  • 3
  • 4
  • 5

[-]
Etiquetas
latino pl altura animación up de una aventura 2009 dvdrip

Up: Una Aventura de Altura (2009) [DVDRip/Latino] [Animación] [PL]

#1
Video 

Subida por pedido

Sinopsis / Synopsis:
"Up" cuenta la historia de un vendedor de globos de 78 años, Carl Fredricksen, quien finamente consigue llevar a cabo el sueño de su vida al enganchar miles de globos a su casa y salir volando rumbo a América del Sur. Pero descubre demasiado tarde que la mayor de sus pesadillas se ha embarcado también en el viaje: un explorador de la jungla llamado Russell, que tiene 8 años y un optimismo a prueba de bombas.
Del oscarizado director Pete Docter (Monstruos SA), Disney Pixar nos invita a un desternillante viaje a un mundo perdido de la mano del duo menos preparado de la Tierra.

Ficha Técnica / Technical details:
Título original: Up
Titulo : Up: Una Aventura de Altura
Año: 2009
Duración: 96 min.
País: Estados Unidos
Director: Pete Docter, Bob Peterson
Guión: Bob Peterson, Pete Docter (Historia: Bob Peterson, Pete Docter, Thomas McCarthy)
Música: Michael Giacchino
Fotografía: Animation
Reparto: Animation
Productora: Pixar Animation Studios / Walt Disney Pictures
Género: Animación. Aventuras. Comedia. Infantil | Amistad. Vejez. 3-D

Trailer:




Datos Técnicos / Technical Data:
DVDRip | AVI | 871 MB | 672x378 | Español Latino

Capturas / Screenshots:


Mediainfo:
Código:
General
Complete name                            : Up: Una Aventura de Altura.DVDRip.Latino(peliculastomas01).avi
Format                                   : AVI
Format/Info                              : Audio Video Interleave
File size                                : 871 MiB
Duration                                 : 1h 36mn
Overall bit rate                         : 1 267 Kbps
Movie name                               : Up.DVDR.Title63.Angle1.DVDRip
Writing application                      : VirtualDubMod 1.5.10.2 (build 2542/release)
Writing library                          : VirtualDubMod build 2542/release
Original source form/Name                : Up.DVDR

Video
ID                                       : 0
Format                                   : MPEG-4 Visual
Format profile                           : Simple@L3
Format settings, BVOP                    : No
Format settings, QPel                    : No
Format settings, GMC                     : No warppoints
Format settings, Matrix                  : Default (H.263)
Codec ID                                 : XVID
Codec ID/Hint                            : XviD
Duration                                 : 1h 36mn
Bit rate                                 : 1 130 Kbps
Width                                    : 672 pixels
Height                                   : 378 pixels
Display aspect ratio                     : 16:9
Frame rate                               : 23.976 fps
Color space                              : YUV
Chroma subsampling                       : 4:2:0
Bit depth                                : 8 bits
Scan type                                : Progressive
Compression mode                         : Lossy
Bits/(Pixel*Frame)                       : 0.186
Stream size                              : 777 MiB (89%)
Writing library                          : XviD 1.2.1 (UTC 2008-12-04)

Audio
ID                                       : 1
Format                                   : MPEG Audio
Format version                           : Version 1
Format profile                           : Layer 3
Mode                                     : Joint stereo
Mode extension                           : MS Stereo
Codec ID                                 : 55
Codec ID/Hint                            : MP3
Duration                                 : 1h 36mn
Bit rate mode                            : Constant
Bit rate                                 : 128 Kbps
Channel(s)                               : 2 channels
Sampling rate                            : 48.0 KHz
Compression mode                         : Lossy
Delay relative to video                  : 20ms
Stream size                              : 88.0 MiB (10%)
Alignment                                : Split accross interleaves
Interleave, duration                     : 42 ms (1.00 video frame)
Interleave, preload duration             : 500 ms
Writing library                          : LAME3.98.2

Contraseña / Password:
Código:
peliculastomas01


Descargar Gratis / Download Free:

FreakShare | uploadable | FireDriver(PutLocker)

Código:
http://goo.gl/RBRo9D

Notas:
----------------------------------------------------------------------------------------------------
-Si tienes problemas con el sonido reportamelo por MP, Ya le tengo solucion.
-Si algun enlace o link se cae, no lo avises comentando, hazlo por MP o por el reporte de links, asi me doy cuenta rapido.
-Verifica si he resubido los links aveces no lo comento en el foro, solo lo digo por el contenedor de links.
-Por favor, les pido que comenten sobre la calidad o sonido de la peli, asi los demas sabran lo que descargan.


----------------------------------------------------------------------------------------------------

Responder
Thanks given by:


Posibles temas similares...
Tema Autor Respuestas Vistas Último mensaje
Video Ultravioleta HD1080p Lat-Cast-Ing 5.1 (2006) dvdriplat 0 5 8 horas
Último mensaje: dvdriplat
Video Ultravioleta HD720p Lat-Cast-Ing 5.1 (2006) dvdriplat 0 4 9 horas
Último mensaje: dvdriplat
Video El Regreso De La Mosca HD1080p Lat-Cast-Ing 2.0 (1959) dvdriplat 0 7 Hoy, 05:13 AM
Último mensaje: dvdriplat
Video El Regreso De La Mosca HD720p Lat-Cast-Ing 2.0 (1959) dvdriplat 0 6 Hoy, 05:05 AM
Último mensaje: dvdriplat



Usuarios navegando en este tema: 1 invitado(s)

Powered By MyBB, © 2002-2017 MyBB Group.